<?xml version="1.0" standalone="no"?>
<!DOCTYPE svg PUBLIC "-//W3C//DTD SVG 1.1//EN" "http://www.w3.org/Graphics/SVG/1.1/DTD/svg11.dtd" >
<svg xmlns="http://www.w3.org/2000/svg" xmlns:xlink="http://www.w3.org/1999/xlink" version="1.1">
<metadata></metadata>
<defs>
<font id="intersemi_bold_italic" horiz-adv-x="1866" >
<font-face units-per-em="2816" ascent="2252" descent="-564" />
<missing-glyph horiz-adv-x="699" />
<glyph horiz-adv-x="0" />
<glyph horiz-adv-x="938" />
<glyph horiz-adv-x="0" />
<glyph unicode="&#x9;" horiz-adv-x="800" />
<glyph unicode=" "  horiz-adv-x="699" />
<glyph unicode="&#x09;" horiz-adv-x="699" />
<glyph unicode="&#xa0;" horiz-adv-x="699" />
<glyph unicode="!" horiz-adv-x="870" d="M839 2048l-272 -1446h-320l207 1446h385zM330 -22q-92 0 -152 64t-56 156q4 90 72.5 153t159.5 63q89 0 151 -63.5t57 -152.5q-6 -92 -75 -156t-157 -64z" />
<glyph unicode="&#x22;" horiz-adv-x="1115" d="M648 2048l-124 -754h-276l124 754h276zM1163 2048l-124 -754h-276l124 754h276z" />
<glyph unicode="#" horiz-adv-x="1811" d="M984 0l87 528h-440l-87 -528h-280l87 528h-289l46 280h289l70 432h-287l46 280h287l87 528h280l-87 -528h440l87 528h280l-87 -528h289l-46 -280h-289l-70 -432h287l-46 -280h-287l-87 -528h-280zM677 808h440l70 432h-440z" />
<glyph unicode="$" horiz-adv-x="1828" d="M643 -256l39 229q-306 25 -462 188t-119 444h365q-14 -136 63 -213.5t208 -97.5l104 604l-89 24q-241 66 -365.5 198t-88.5 352q28 166 132 294.5t263 207.5t350 97l40 233h212l-40 -233q278 -27 422.5 -189t110.5 -407h-357q6 233 -231 278l-98 -572l63 -16 q147 -36 272.5 -106.5t192.5 -188t37 -295.5q-42 -251 -245 -414.5t-528 -187.5l-39 -229h-212zM950 294q140 23 234 98t112 186q19 106 -52 165t-200 99zM899 1236l89 518q-130 -22 -211.5 -91.5t-97.5 -167.5q-19 -106 51 -166t169 -93z" />
<glyph unicode="%" horiz-adv-x="2376" d="M1213 384l20 108q19 119 86 219.5t174.5 161t245.5 60.5q142 0 228.5 -60t119 -160.5t12.5 -220.5l-20 -108q-19 -119 -85.5 -219.5t-173 -161t-246.5 -60.5q-141 0 -227.5 60.5t-119.5 161t-14 219.5zM368 1556l16 108q20 120 87.5 220.5t174 160.5t244.5 60 q142 0 228.5 -60t119 -160.5t12.5 -220.5l-16 -108q-20 -120 -86.5 -219.5t-172.5 -159.5t-246 -60q-141 0 -228 60t-120 160t-13 219zM305 0l1539 2048h252l-1538 -2048h-253zM1494 492l-20 -108q-12 -79 14 -145t123 -66q96 0 144.5 66t60.5 145l20 108q14 80 -10.5 146.5 t-123.5 66.5q-95 0 -144.5 -66.5t-63.5 -146.5zM647 1664l-16 -108q-15 -79 12.5 -145t122.5 -66q96 0 143 66t62 145l16 108q14 80 -10.5 146.5t-123.5 66.5q-95 0 -143.5 -67t-62.5 -146z" />
<glyph unicode="&#x26;" d="M666 -30q-209 0 -347.5 75.5t-198.5 205.5t-33 293q29 181 156 304.5t318 241.5q-70 109 -111.5 224.5t-19.5 252.5q24 146 109.5 260t217.5 180t293 66q162 0 268.5 -64t152 -170t23.5 -231q-24 -145 -115.5 -259.5t-234.5 -207.5l-145 -95l301 -438q53 76 90.5 166 t53.5 191h311q-35 -213 -110 -364t-167 -252l240 -349h-392l-106 150q-123 -92 -270.5 -136t-283.5 -44zM1061 375l-344 487l-37 -24q-115 -75 -171 -150t-65 -128q-19 -121 57 -206.5t226 -85.5q167 0 334 107zM851 1267l129 79q89 52 139.5 110.5t63.5 135.5 q11 66 -34.5 125t-143.5 59q-97 0 -169.5 -65t-85.5 -149q-11 -71 19.5 -143.5t81.5 -151.5z" />
<glyph unicode="'" horiz-adv-x="600" d="M648 2048l-124 -754h-276l124 754h276z" />
<glyph unicode="(" horiz-adv-x="1108" d="M287 835q123 739 607 1271h340q-93 -99 -182 -242.5t-166 -314t-134.5 -353.5t-87.5 -361q-40 -237 -32.5 -480t55 -450.5t127.5 -339.5h-341q-152 267 -199.5 581.5t13.5 688.5z" />
<glyph unicode=")" horiz-adv-x="1108" d="M843 835q-123 -739 -607 -1271h-340q93 99 182 242.5t166 314t134.5 353.5t87.5 361q40 237 32.5 480t-55 450.5t-127.5 339.5h341q152 -267 199.5 -581.5t-13.5 -688.5z" />
<glyph unicode="*" horiz-adv-x="1530" d="M663 896l92 405l-376 -223l-85 212l389 182l-334 182l157 212l304 -223l45 405h243l-89 -405l373 223l88 -212l-389 -182l334 -182l-157 -212l-304 223l-48 -405h-243z" />
<glyph unicode="+" d="M671 135l87 523h-524l52 314h523l87 523h314l-87 -523h523l-52 -314h-522l-87 -523h-314z" />
<glyph unicode="," horiz-adv-x="831" d="M531 280l-33 -110q-35 -126 -92 -256.5t-113 -240.5t-90 -173h-244q23 59 64.5 164.5t86 236.5t74.5 267l27 112h320z" />
<glyph unicode="-" horiz-adv-x="1312" d="M1155 1002l-49 -298h-921l49 298h921z" />
<glyph unicode="." horiz-adv-x="818" d="M302 -22q-92 0 -152 64t-56 156q4 90 72.5 153t159.5 63q89 0 151 -63.5t57 -152.5q-6 -92 -75 -156t-157 -64z" />
<glyph unicode="/" horiz-adv-x="1066" d="M1250 2144l-1064 -2452h-317l1064 2452h317z" />
<glyph unicode="0" horiz-adv-x="1878" d="M806 -39q-372 0 -534.5 279t-78.5 782q56 335 189.5 570.5t330.5 359.5t442 124q368 0 533.5 -276t81.5 -778q-56 -335 -189.5 -572.5t-330.5 -363t-444 -125.5zM858 274q192 0 334.5 190t203.5 558q62 366 -19 555.5t-272 189.5t-334 -189.5t-204 -555.5 q-61 -369 19.5 -558.5t271.5 -189.5z" />
<glyph unicode="1" horiz-adv-x="1305" d="M1178 2048l-340 -2048h-372l261 1574h-17q-37 -48 -156 -100t-291 -52l48 300q106 0 194.5 37t155.5 91.5t108 109t53 88.5h356z" />
<glyph unicode="2" horiz-adv-x="1750" d="M54 0l45 268l826 697q178 155 273 263t117 235q24 145 -57 228.5t-228 83.5q-152 0 -261.5 -92t-135.5 -248h-353q33 195 146.5 339t284.5 223t374 79q207 0 349 -77t205.5 -211t34.5 -306q-20 -115 -82.5 -226t-195.5 -246.5t-364 -326.5l-411 -359l-3 -14h891l-51 -310 h-1404z" />
<glyph unicode="3" horiz-adv-x="1835" d="M803 -28q-220 0 -379.5 74t-236.5 206t-51 305h370q-15 -124 72.5 -199t239.5 -75q168 0 296.5 90.5t150.5 235.5q20 134 -72 214t-283 80h-189l47 286h172q161 0 279 88t142 231q20 121 -46.5 194t-209.5 73q-96 0 -186 -34t-153.5 -96.5t-78.5 -148.5h-355 q31 171 145.5 302t283 204.5t362.5 73.5q209 0 350 -82t204.5 -216t37.5 -290q-28 -173 -148.5 -281t-296.5 -144v-13q200 -30 299 -168.5t67 -333.5q-28 -172 -143 -301.5t-293.5 -202t-396.5 -72.5z" />
<glyph unicode="4" horiz-adv-x="1875" d="M81 380l48 295l1097 1373h462l-226 -1363h263l-51 -305h-263l-63 -380h-354l63 380h-976zM1113 685l156 943h-16l-740 -927l-2 -16h602z" />
<glyph unicode="5" horiz-adv-x="1781" d="M762 -28q-200 0 -345.5 75.5t-216.5 208t-49 301.5h360q-11 -125 75.5 -205t223.5 -80q166 0 290.5 110t153.5 282q29 175 -61.5 287t-260.5 112q-91 0 -186 -34.5t-157 -91.5l-326 55l283 1056h1188l-50 -310h-882l-149 -543h12q68 68 179.5 112t236.5 44 q186 0 317 -87.5t189.5 -240.5t24.5 -350q-32 -203 -151.5 -361.5t-300 -249t-398.5 -90.5z" />
<glyph unicode="6" horiz-adv-x="1825" d="M819 -28q-151 1 -285.5 53t-229.5 169.5t-130.5 312.5t12.5 480q58 348 194.5 593t334 373.5t439.5 128.5q193 0 333 -75.5t214 -207.5t68 -301h-358q-3 124 -74.5 193.5t-202.5 69.5q-215 0 -368 -186.5t-212 -524.5l16 21q96 132 240 203t304 71q185 0 318 -89.5 t193.5 -244.5t26.5 -354q-33 -197 -148.5 -352.5t-292 -244.5t-392.5 -88zM832 272q113 0 212.5 56t167.5 150.5t86 211.5q25 157 -57.5 264.5t-239.5 107.5q-113 0 -214 -57t-170 -151.5t-87 -207.5q-24 -154 59.5 -264t242.5 -110z" />
<glyph unicode="7" horiz-adv-x="1653" d="M129 0l1157 1724l4 14h-1012l51 310h1395l-53 -317l-1157 -1731h-385z" />
<glyph unicode="8" horiz-adv-x="1818" d="M786 -28q-225 0 -387 77t-239.5 210t-49.5 299q22 126 96 232.5t182 177.5t230 91v11q-151 36 -225 167t-44 300q28 157 135.5 278.5t270.5 191t359 69.5q200 0 345 -73t215 -199t44 -286q-29 -172 -150.5 -293t-282.5 -155v-11q117 -21 203 -95t126 -184t17 -241 q-27 -164 -145 -292t-299.5 -201.5t-400.5 -73.5zM816 258q177 0 297.5 91t144.5 236q23 146 -67.5 235.5t-251.5 89.5q-168 0 -293.5 -97t-150.5 -247q-22 -140 65 -224t256 -84zM970 1191q147 0 253.5 87.5t130.5 223.5q23 132 -51.5 208t-216.5 76q-150 0 -256 -84 t-129 -220q-22 -133 54.5 -212t214.5 -79z" />
<glyph unicode="9" horiz-adv-x="1825" d="M1094 2082q151 -1 285.5 -53.5t229.5 -170t130 -312.5t-13 -480q-57 -348 -193 -592.5t-333.5 -373t-440.5 -128.5q-193 0 -333 75.5t-213.5 207.5t-68.5 301h358q3 -124 74 -193.5t202 -69.5q215 0 368.5 186.5t211.5 523.5l-16 -21q-95 -132 -238.5 -202.5 t-305.5 -70.5q-184 0 -317 89t-193 244.5t-27 354.5q34 197 149 352t291.5 244.5t392.5 88.5zM1081 1782q-112 0 -212 -56t-168 -150.5t-86 -212.5q-25 -157 57.5 -264.5t239.5 -107.5q113 0 214 57t170 152t86 207q26 155 -57.5 265t-243.5 110z" />
<glyph unicode=":" horiz-adv-x="818" d="M302 -22q-92 0 -152 64t-56 156q4 90 72.5 153t159.5 63q89 0 151 -63.5t57 -152.5q-6 -92 -75 -156t-157 -64zM484 1075q-92 0 -152 64t-56 156q4 90 72.5 153t159.5 63q89 0 151 -63.5t57 -152.5q-6 -92 -75 -156t-157 -64z" />
<glyph unicode=";" horiz-adv-x="831" d="M531 280l-33 -110q-35 -126 -92 -256.5t-113 -240.5t-90 -173h-244q23 59 64.5 164.5t86 236.5t74.5 267l27 112h320zM490 1075q-92 0 -152 64t-56 156q4 90 72.5 153t159.5 63q89 0 151 -63.5t57 -152.5q-6 -92 -75 -156t-157 -64z" />
<glyph unicode="&#x3c;" d="M233 669l49 288l1471 632l-58 -355l-1030 -413l-3 -18l894 -411l-60 -355z" />
<glyph unicode="=" d="M222 338l50 309h1283l-50 -309h-1283zM326 978l52 309h1283l-52 -309h-1283z" />
<glyph unicode="&#x3e;" d="M1601 669l-1473 -632l60 355l1028 413l3 17l-892 412l58 355l1265 -632z" />
<glyph unicode="?" horiz-adv-x="1532" d="M505 602l5 33q31 178 82.5 283.5t125 170.5t168.5 120q100 58 175 132t91 180q20 118 -48 188.5t-183 70.5q-106 0 -205 -68.5t-128 -209.5h-356q37 190 145.5 317.5t263 192t329.5 64.5q191 0 325.5 -67t196 -190.5t33.5 -292.5q-28 -172 -128.5 -289.5t-250.5 -198.5 q-135 -73 -205 -160t-98 -243l-5 -33h-333zM598 -22q-92 0 -152 64t-56 156q4 90 72.5 153t159.5 63q89 0 151 -63.5t57 -152.5q-6 -92 -75 -156t-157 -64z" />
<glyph unicode="@" horiz-adv-x="2814" d="M1678 2017q293 0 505 -88.5t342 -247.5t176 -371t5 -458q-37 -228 -117.5 -420t-220 -310.5t-356.5 -126.5q-152 -8 -237.5 50.5t-84.5 170.5h-12q-48 -89 -181.5 -153t-302.5 -56q-161 8 -275 94t-161.5 243.5t-11.5 377.5q36 214 139 362t241.5 231t280.5 101 q112 15 203.5 -2.5t149.5 -55t66 -81.5h14l18 112h280l-159 -952q-10 -74 18.5 -120.5t92.5 -46.5q120 0 195.5 144.5t125.5 454.5q48 284 -41.5 478t-283.5 293t-461 99q-326 0 -569 -130.5t-393.5 -361.5t-200.5 -533q-80 -486 139 -746t715 -260q114 0 225 18t202 42 t142 42l44 -254q-69 -32 -179.5 -62t-240.5 -49t-259 -19q-629 0 -915 336.5t-186 947.5q66 398 270 691.5t524 454.5t735 161zM1465 1129q-168 0 -278.5 -112t-139.5 -283q-18 -114 -1 -214.5t83.5 -163t196.5 -62.5q189 0 284.5 111t131.5 330q33 204 -28.5 299t-248.5 95 z" />
<glyph unicode="A" horiz-adv-x="2038" d="M337 0h-396l1061 2048h458l382 -2048h-396l-85 505h-770zM740 803h570l-139 825h-16z" />
<glyph unicode="B" horiz-adv-x="1851" d="M74 0l340 2048h784q333 0 473.5 -151t101.5 -380q-32 -186 -153 -293t-276 -143l-4 -20q108 -5 198.5 -66t136.5 -171.5t20 -265.5q-26 -159 -124.5 -285.5t-266 -199.5t-401.5 -73h-829zM497 310h399q201 0 304 78t123 199q22 137 -61.5 230t-255.5 93h-410zM642 1177 h367q144 0 254.5 79t130.5 213q21 119 -50 196t-234 77h-376z" />
<glyph unicode="C" horiz-adv-x="2094" d="M2050 1357h-368q-1 184 -113.5 285t-292.5 101q-172 0 -320 -87t-251.5 -252.5t-142.5 -401.5q-56 -344 69 -520.5t364 -176.5q193 0 350 98t223 277h373q-61 -196 -197.5 -356.5t-331.5 -256t-434 -95.5q-275 0 -470 128.5t-280.5 369t-30.5 576.5q55 327 213 557 t385.5 351.5t489.5 121.5q232 0 406 -85t269.5 -245.5t89.5 -388.5z" />
<glyph unicode="D" horiz-adv-x="2040" d="M778 0h-704l340 2048h698q305 0 506 -125.5t282.5 -359t27.5 -557.5q-52 -315 -205 -540.5t-393 -345.5t-552 -120zM498 321h299q320 0 515.5 182.5t254.5 543.5q116 680 -510 680h-325z" />
<glyph unicode="E" horiz-adv-x="1711" d="M74 0l340 2048h1332l-52 -311h-961l-92 -556h892l-52 -311h-892l-92 -559h969l-52 -311h-1340z" />
<glyph unicode="F" horiz-adv-x="1649" d="M74 0l340 2048h1312l-52 -311h-941l-92 -556h851l-52 -311h-851l-144 -870h-371z" />
<glyph unicode="G" horiz-adv-x="2126" d="M1676 1394q-21 162 -118 255.5t-282 93.5q-165 0 -313 -83t-253 -243t-143 -391q-58 -348 63.5 -534.5t378.5 -186.5q231 0 397.5 129t205.5 348h-473l50 290h831l-42 -246q-43 -264 -186.5 -455.5t-357 -295t-467.5 -103.5q-282 0 -474.5 127.5t-272.5 363t-26 559.5 q54 330 215.5 566t394.5 362t501 126q226 0 395.5 -87t263 -240.5t90.5 -354.5h-378z" />
<glyph unicode="H" horiz-adv-x="2095" d="M74 0l340 2048h371l-144 -867h949l144 867h372l-340 -2048h-372l144 870h-949l-144 -870h-371z" />
<glyph unicode="I" horiz-adv-x="774" d="M785 2048l-340 -2048h-371l340 2048h371z" />
<glyph unicode="J" horiz-adv-x="1579" d="M1222 2048h368l-240 -1445q-49 -296 -253 -463.5t-503 -167.5q-181 0 -316 64.5t-199 192t-33 315.5h364q-17 -128 45 -197.5t185 -69.5q136 0 226.5 87t118.5 249z" />
<glyph unicode="K" horiz-adv-x="1906" d="M74 0l340 2048h371l-155 -941h25l954 941h453l-943 -919l610 -1129h-446l-462 878l-274 -270l-102 -608h-371z" />
<glyph unicode="L" horiz-adv-x="1594" d="M74 0l340 2048h371l-288 -1737h902l-52 -311h-1273z" />
<glyph unicode="M" horiz-adv-x="2552" d="M414 2048h454l363 -1484h24l853 1484h454l-340 -2048h-356l234 1407h-18l-800 -1401h-265l-332 1404h-19l-236 -1410h-356z" />
<glyph unicode="N" horiz-adv-x="2086" d="M2097 2048l-340 -2048h-330l-733 1395h-16l-233 -1395h-371l340 2048h332l732 -1396h19l231 1396h369z" />
<glyph unicode="O" horiz-adv-x="2182" d="M2070 1000q-54 -325 -212.5 -555t-385.5 -351.5t-490 -121.5q-275 0 -471.5 128t-283 368.5t-31.5 576.5q54 326 212.5 556.5t387 352.5t493.5 122q273 0 468.5 -128.5t282 -369.5t30.5 -578zM1705 1045q56 341 -66.5 519.5t-364.5 178.5q-173 0 -321 -86.5 t-250.5 -252.5t-140.5 -404q-59 -343 66.5 -519t365.5 -176q173 0 319.5 86t249.5 251t142 403z" />
<glyph unicode="P" horiz-adv-x="1810" d="M74 0l340 2048h768q236 0 382 -88t203 -241t24 -349q-32 -197 -140.5 -350t-285 -240.5t-414.5 -87.5h-391l-115 -692h-371zM611 997h341q208 0 321.5 105t139.5 268q26 164 -52 266t-287 102h-340z" />
<glyph unicode="Q" horiz-adv-x="2206" d="M2070 1000q-44 -265 -159.5 -467.5t-279.5 -334.5l268 -374h-360l-163 224q-187 -76 -394 -76q-275 0 -471.5 128t-283 368.5t-31.5 576.5q54 326 212.5 556.5t387 352.5t493.5 122q273 0 468.5 -128.5t282 -369.5t30.5 -578zM942 688h336l152 -210q101 94 172.5 236.5 t102.5 330.5q56 341 -66.5 519.5t-364.5 178.5q-173 0 -321 -86.5t-250.5 -252.5t-140.5 -404q-59 -343 66.5 -519t365.5 -176q101 0 194 30z" />
<glyph unicode="R" horiz-adv-x="1843" d="M74 0l340 2048h768q353 0 507.5 -180t105.5 -475q-34 -208 -153 -358t-312 -223l309 -812h-414l-278 750h-377l-125 -750h-371zM621 1058h343q206 0 316.5 86t136.5 249q26 164 -55 254.5t-288 90.5h-340z" />
<glyph unicode="S" horiz-adv-x="1828" d="M1431 1475q4 139 -84 213t-254 74q-174 0 -284 -75.5t-130 -191.5q-15 -85 28 -140t118 -88.5t156 -53.5l184 -48q147 -36 272.5 -106.5t192.5 -188t37 -295.5q-30 -180 -144.5 -316.5t-300 -213t-431.5 -76.5q-358 0 -544 165.5t-146 470.5h365q-16 -161 92.5 -240 t281.5 -79q182 0 308.5 80.5t147.5 211.5q21 119 -70.5 180.5t-251.5 103.5l-222 60q-241 66 -365.5 198t-88.5 352q31 182 151.5 317.5t303 211t397.5 75.5q218 0 369.5 -76t222.5 -211.5t46 -313.5h-357z" />
<glyph unicode="T" horiz-adv-x="1858" d="M272 1737l52 311h1634l-52 -311h-633l-288 -1737h-368l288 1737h-633z" />
<glyph unicode="U" horiz-adv-x="2066" d="M1706 2048h370l-224 -1354q-38 -232 -174.5 -394t-338.5 -246.5t-438 -84.5q-238 0 -412.5 84.5t-256 246.5t-42.5 394l224 1354h371l-223 -1345q-31 -190 84 -295t308 -105q129 0 242 47.5t190 137t98 215.5z" />
<glyph unicode="V" horiz-adv-x="2038" d="M688 2048l266 -1612h21l799 1612h408l-1062 -2048h-458l-381 2048h407z" />
<glyph unicode="W" horiz-adv-x="2835" d="M505 0l-238 2048h399l120 -1505h19l643 1505h363l146 -1506h18l618 1506h399l-918 -2048h-366l-170 1437h-16l-651 -1437h-366z" />
<glyph unicode="X" horiz-adv-x="1944" d="M714 2048l328 -750h16l576 750h433l-799 -1024l469 -1024h-423l-332 745h-16l-580 -745h-435l819 1024l-471 1024h415z" />
<glyph unicode="Y" horiz-adv-x="1984" d="M274 2048h419l351 -906h22l649 906h419l-958 -1284l-127 -764h-370l127 764z" />
<glyph unicode="Z" horiz-adv-x="1838" d="M36 0l40 231l1299 1506h-1057l52 311h1516l-37 -231l-1302 -1506h1057l-52 -311h-1516z" />
<glyph unicode="[" horiz-adv-x="1108" d="M109 -435l421 2541h723l-47 -278h-374l-328 -1986h374l-46 -277h-723z" />
<glyph unicode="\" horiz-adv-x="1134" d="M263 2048h327l320 -2356h-326z" />
<glyph unicode="]" horiz-adv-x="1108" d="M1021 2105l-421 -2541h-723l47 278h374l328 1986h-374l46 277h723z" />
<glyph unicode="^" horiz-adv-x="1355" d="M159 1120l562 877h320l275 -877h-282l-178 615h-15l-375 -615h-307z" />
<glyph unicode="_" horiz-adv-x="1318" d="M1193 0l-47 -289h-1324l48 289h1323z" />
<glyph unicode="`" horiz-adv-x="1400" d="M1149 1738h-271l-230 457h354z" />
<glyph unicode="a" horiz-adv-x="1618" d="M496 -31q-219 0 -347 118t-91 344q29 173 128.5 268.5t240 139t291.5 59.5q206 22 298.5 42t105.5 96v6q18 113 -36 175t-180 62q-132 0 -222 -57.5t-131 -137.5l-328 48q93 210 286.5 317t435.5 107q110 0 215.5 -26t187 -86t120 -162t12.5 -254l-171 -1028h-348l36 211 h-12q-64 -97 -187 -169.5t-304 -72.5zM633 235q163 0 275.5 94t133.5 222l30 181q-26 -19 -90 -33.5t-134.5 -24.5t-118.5 -17q-124 -17 -214 -66t-106 -154q-16 -99 47.5 -150.5t176.5 -51.5z" />
<glyph unicode="b" horiz-adv-x="1775" d="M74 0l340 2048h362l-126 -766h16q36 56 97.5 119.5t156.5 109t230 45.5q178 0 306 -91t183.5 -267t12.5 -432q-41 -253 -153.5 -430t-271.5 -270t-340 -93q-132 0 -211.5 44t-121.5 106.5t-61 118.5h-23l-40 -242h-356zM557 768q-36 -223 35.5 -360.5t244.5 -137.5 q179 0 294.5 141t151.5 357q35 215 -33.5 353t-249.5 138q-175 0 -291 -133.5t-152 -357.5z" />
<glyph unicode="c" horiz-adv-x="1626" d="M724 -30q-230 0 -378 101t-206.5 280t-19.5 411q38 235 157 413.5t301.5 279.5t407.5 101q281 0 435.5 -151t132.5 -401h-347q-2 111 -68.5 185.5t-196.5 74.5q-169 0 -293.5 -131.5t-161.5 -364.5q-39 -235 40.5 -369t248.5 -134q119 0 213.5 68t139.5 192h346 q-42 -163 -146 -288.5t-258 -196t-347 -70.5z" />
<glyph unicode="d" horiz-adv-x="1778" d="M627 -27q-181 0 -309 93t-181.5 270t-12.5 430q43 256 157 432t272.5 267t335.5 91q136 0 215 -45.5t120 -109t59 -119.5h15l128 766h362l-340 -2048h-356l41 242h-22q-37 -56 -100.5 -118.5t-157.5 -106.5t-226 -44zM772 270q173 0 292.5 137.5t156.5 360.5 q37 224 -36.5 357.5t-249.5 133.5q-180 0 -293 -138t-148 -353q-36 -216 31.5 -357t246.5 -141z" />
<glyph unicode="e" horiz-adv-x="1671" d="M734 -30q-231 0 -382 97t-211.5 274.5t-20.5 417.5q39 237 159 416.5t300.5 280t399.5 100.5q189 0 335 -82t214 -253.5t23 -440.5l-17 -111h-1071l-1 -5q-34 -216 53.5 -314t270.5 -98q119 0 212 50t147 148l331 -38q-82 -200 -277.5 -321t-464.5 -121zM506 913h719 q26 157 -52 259t-235 102q-104 0 -195 -52t-154 -134.5t-83 -174.5z" />
<glyph unicode="f" horiz-adv-x="1072" d="M1102 1536l-47 -280h-320l-208 -1256h-362l210 1256h-228l47 280h228l24 145q24 155 105.5 258t199 154t250.5 51q95 0 165 -15t102 -27l-118 -280q-22 7 -55 14.5t-76 7.5q-101 0 -150.5 -48.5t-66.5 -138.5l-20 -121h320z" />
<glyph unicode="g" horiz-adv-x="1761" d="M630 -602q-295 0 -443.5 112.5t-173.5 269.5l340 79q15 -42 48.5 -85t99.5 -72.5t176 -29.5q154 0 269 74.5t142 238.5l46 291h-18q-36 -56 -98.5 -115t-157 -99t-226.5 -40q-178 0 -307.5 83.5t-186 250.5t-14.5 417q42 253 155 427.5t272 265t336 90.5q136 0 216 -45.5 t121 -109t59 -119.5h19l42 254h357l-258 -1561q-32 -194 -147 -322t-288 -191.5t-380 -63.5zM778 306q173 0 290 124.5t153 344.5q35 218 -39 351t-248 133q-181 0 -293 -137.5t-147 -346.5q-34 -212 35 -340.5t249 -128.5z" />
<glyph unicode="h" horiz-adv-x="1726" d="M570 900l-148 -900h-363l340 2048h355l-128 -773h19q73 131 199.5 206t304.5 75q238 0 358 -149.5t75 -428.5l-164 -978h-363l154 922q25 155 -40.5 241.5t-206.5 86.5q-145 0 -254 -91.5t-138 -258.5z" />
<glyph unicode="i" horiz-adv-x="734" d="M58 0l256 1536h362l-256 -1536h-362zM548 1756q-86 0 -143.5 57.5t-50.5 138.5q8 82 74 139.5t153 57.5q86 0 142.5 -57.5t49.5 -139.5q-6 -81 -72.5 -138.5t-152.5 -57.5z" />
<glyph unicode="j" horiz-adv-x="734" d="M314 1536h362l-269 -1621q-40 -249 -202 -370.5t-419 -117.5q-15 0 -31.5 0.5t-36.5 1.5l48 295q15 -1 27 -1.5t25 -0.5q105 0 158 50.5t70 147.5zM543 1754q-86 0 -143.5 57.5t-50.5 138.5q8 82 74 139.5t153 57.5q86 0 142.5 -57.5t49.5 -139.5q-6 -81 -72.5 -138.5 t-152.5 -57.5z" />
<glyph unicode="k" horiz-adv-x="1602" d="M58 0l340 2048h362l-187 -1129h23l657 617h423l-706 -664l485 -872h-433l-361 657l-155 -140l-86 -517h-362z" />
<glyph unicode="l" horiz-adv-x="734" d="M760 2048l-340 -2048h-362l340 2048h362z" />
<glyph unicode="m" horiz-adv-x="2528" d="M59 0l256 1536h347l-44 -261h19q70 131 193 206t277 75q155 0 250.5 -75t117.5 -206h16q71 128 206 204.5t303 76.5q210 0 322 -134t69 -391l-172 -1031h-362l164 975q22 143 -43.5 209.5t-175.5 66.5q-130 0 -217 -81t-107 -212l-161 -958h-355l166 990q18 119 -41 190 t-175 71q-117 0 -214 -88t-120 -229l-156 -934h-363z" />
<glyph unicode="n" horiz-adv-x="1717" d="M570 900l-148 -900h-363l256 1536h347l-44 -261h19q72 129 202.5 205t302.5 76q236 0 356 -150.5t74 -427.5l-164 -978h-362l153 922q26 153 -38.5 240.5t-206.5 87.5t-248.5 -91.5t-135.5 -258.5z" />
<glyph unicode="o" horiz-adv-x="1712" d="M734 -30q-227 0 -377.5 100.5t-212 281t-22.5 419.5q39 236 157 412.5t297.5 274.5t401.5 98q227 0 377.5 -100.5t212 -281.5t22.5 -422q-39 -235 -157.5 -411t-297.5 -273.5t-401 -97.5zM763 260q126 0 222 68.5t157.5 185t84.5 259.5q23 138 2 250.5t-90 179t-190 66.5 q-126 0 -222 -69t-157.5 -186t-84.5 -260q-22 -138 -1.5 -250t89.5 -178t190 -66z" />
<glyph unicode="p" horiz-adv-x="1759" d="M-38 -576l352 2112h356l-42 -254h22q36 56 97.5 119.5t156.5 109t230 45.5q178 0 306 -91t183.5 -267t12.5 -432q-41 -253 -153.5 -430t-271.5 -270t-340 -93q-132 0 -211.5 44t-121.5 106.5t-61 118.5h-17l-136 -818h-362zM541 768q-36 -223 35.5 -360.5t244.5 -137.5 q179 0 294 141t152 357q35 215 -33.5 353t-249.5 138q-175 0 -291 -133.5t-152 -357.5z" />
<glyph unicode="q" horiz-adv-x="1759" d="M1354.28 -576l347.316 2112h-356l-42.1035 -254h-22q-17.457 56 -57.9316 119.5q-40.4736 63.5 -120.408 109t-214.935 45.5q-178 0 -336.131 -91q-158.132 -91 -271.908 -267t-155.542 -432q-42.7725 -253 11.1201 -430t182.099 -270t309.206 -93q132 0 226.069 44 t156.764 106.5q62.6953 62.5 100.237 118.5h17l-134.853 -818h362zM1220.3 768q-37.8389 -223 -154.867 -360.5t-290.028 -137.5q-179 0 -247.312 141q-68.3135 141 -33.792 357q36.1895 215 150.384 353t295.194 138q175 0 246.796 -133.5t33.626 -357.5z" />
<glyph unicode="r" horiz-adv-x="1165" d="M58 0l256 1536h351l-43 -256h16q64 134 177.5 206t248.5 72q122 0 194 -56l-160 -298q-25 14 -60 22t-79 8q-141 0 -253 -92.5t-137 -238.5l-149 -903h-362z" />
<glyph unicode="s" horiz-adv-x="1546" d="M1459 1130l-333 -36q-8 77 -63.5 134.5t-177.5 57.5q-118 0 -207 -53t-101 -136q-11 -61 30 -100.5t152 -66.5l254 -56q421 -95 367 -427q-24 -142 -124.5 -249.5t-255.5 -167.5t-344 -60q-287 0 -441.5 119t-153.5 330l356 34q6 -104 73.5 -156.5t185.5 -53.5 q134 -1 226.5 57t104.5 140q11 62 -29.5 101t-144.5 62l-252 55q-426 94 -366 444q24 140 117.5 241.5t240.5 157t329 55.5q275 0 413.5 -115t143.5 -311z" />
<glyph unicode="t" horiz-adv-x="1070" d="M1081 1536l-47 -280h-304l-132 -794q-17 -109 25.5 -143.5t110.5 -34.5q33 0 62.5 5.5t45.5 8.5l16 -283q-33 -10 -88.5 -22t-132.5 -14q-206 -5 -326 101t-83 322l141 854h-217l46 280h217l61 368h362l-61 -368h304z" />
<glyph unicode="u" horiz-adv-x="1713" d="M1144 646l149 890h362l-256 -1536h-351l46 273h-16q-72 -129 -205.5 -211t-306.5 -82q-226 0 -344 150.5t-72 427.5l164 978h362l-154 -922q-22 -146 43 -232t195 -86q80 0 161.5 39t142.5 116.5t80 194.5z" />
<glyph unicode="v" horiz-adv-x="1622" d="M1686 1536l-803 -1536h-400l-291 1536h381l164 -1141h16l543 1141h390z" />
<glyph unicode="w" horiz-adv-x="2358" d="M375 0l-178 1536h369l90 -1080h14l456 1080h365l96 -1074h15l446 1074h370l-691 -1536h-377l-116 1038h-21l-460 -1038h-378z" />
<glyph unicode="x" horiz-adv-x="1584" d="M610 1536l216 -567l409 567h383l-591 -768l343 -768h-381l-233 553l-414 -553h-384l596 768l-328 768h384z" />
<glyph unicode="y" horiz-adv-x="1622" d="M173 -598q-79 0 -136.5 14t-84.5 27l130 290q113 -34 194.5 -11.5t154.5 148.5l57 103l-296 1563h379l161 -1160h16l548 1160h390l-908 -1736q-96 -181 -245.5 -289.5t-359.5 -108.5z" />
<glyph unicode="z" horiz-adv-x="1585" d="M39 0l39 230l955 993l4 13h-766l51 300h1208l-40 -247l-915 -976l-4 -13h780l-49 -300h-1263z" />
<glyph unicode="{" horiz-adv-x="1108" d="M832 -435q-200 0 -334.5 44t-190 163t-19.5 345l41 254q25 158 -29 227t-226 69h-4l56 336h4q171 0 251 69t105 227l40 255q36 226 131.5 345t245.5 163t350 44l-47 -278q-176 0 -246 -73t-94 -230l-56 -328q-18 -118 -98.5 -210.5t-292.5 -133.5l-6 -37q132 -26 196 -77 t79.5 -119t3.5 -146l-55 -328q-26 -157 19.5 -230.5t221.5 -73.5z" />
<glyph unicode="|" horiz-adv-x="1000" d="M934 2444l-495 -2994h-315l495 2994h315z" />
<glyph unicode="}" horiz-adv-x="1108" d="M298 2105q200 0 334.5 -44t190 -163t19.5 -345l-41 -254q-25 -158 29 -227t226 -69h4l-56 -336h-4q-171 0 -251 -69t-105 -227l-40 -255q-36 -226 -131.5 -345t-245.5 -163t-350 -44l47 278q176 0 246 73t94 230l56 328q18 118 98.5 210.5t292.5 133.5l6 37 q-132 26 -196 77t-79.5 119t-3.5 146l55 328q26 157 -19.5 230.5t-221.5 73.5z" />
<glyph unicode="~" d="M174 571q38 273 180 409t328 136q98 0 176.5 -41t172.5 -137q55 -54 91.5 -81t88.5 -27q77 0 133.5 58t74.5 178h290q-37 -271 -182.5 -407.5t-328.5 -136.5q-100 0 -178 42t-170 135q-57 57 -92 82.5t-88 25.5q-74 0 -131 -54t-76 -182h-289z" />
<glyph unicode="&#xa1;" horiz-adv-x="870" d="M31 -518l272 1446h320l-207 -1446h-385zM540 1552q92 0 152 -64t56 -156q-4 -90 -72.5 -153t-159.5 -63q-89 0 -151 63.5t-57 152.5q6 92 75 156t157 64z" />
<glyph unicode="&#xa2;" horiz-adv-x="1626" d="M592 -256l38 231q-198 21 -324 126t-174 275t-12 386q35 218 140.5 388t267 275t362.5 126l38 229h178l-38 -228q243 -22 374.5 -169.5t111.5 -378.5h-347q-2 93 -49 161.5t-139 90.5l-162 -982q92 20 163.5 84.5t108.5 166.5h346q-58 -227 -234 -377.5t-433 -173.5 l-38 -230h-178zM680 278l161 973q-133 -36 -228 -161.5t-126 -321.5q-33 -199 19.5 -326.5t173.5 -163.5z" />
<glyph unicode="&#xa3;" horiz-adv-x="1853" d="M1510 0h-1444l52 311h113q50 7 83 51t52.5 104.5t26.5 115.5l30 227h-230l53 303h216l45 343q26 203 134 341.5t266 209t334 70.5q203 0 336 -80.5t183 -215.5t4 -301l-342 29q32 137 -40.5 200t-182.5 63q-111 0 -206.5 -77t-123.5 -239l-44 -343h463l-53 -303h-450 l-27 -211q-11 -87 -41.5 -159t-87.5 -128h933z" />
<glyph unicode="&#xa4;" horiz-adv-x="2114" d="M234 836q23 145 86 274.5t154 235.5l-164 200l212 188l167 -200q116 77 248 119.5t270 42.5q140 0 260 -44t211 -123l238 205l154 -188l-241 -206q56 -105 76 -233t-3 -271q-23 -138 -81.5 -261.5t-143.5 -227.5l160 -189l-216 -188l-151 184q-122 -86 -261.5 -134 t-285.5 -48q-145 0 -268 47.5t-215 132.5l-213 -182l-149 188l219 187q-51 103 -68.5 228t5.5 263zM478 836q-30 -171 25.5 -311t176 -223t284.5 -83q162 0 308.5 83t249.5 223t132 311q29 173 -27.5 313t-176.5 222t-282 82q-165 0 -311.5 -82t-248 -222t-130.5 -313z" />
<glyph unicode="&#xa5;" horiz-adv-x="1589" d="M640 2048l225 -858l508 858h388l-643 -1004h320l-36 -225h-419l-29 -171h420l-37 -225h-420l-71 -423h-368l71 423h-439l37 225h439l29 171h-440l36 225h347l-306 1004h388z" />
<glyph unicode="&#xa6;" horiz-adv-x="897" d="M250 565h328l-158 -949h-327zM824 2048l-158 -945h-327l158 945h327z" />
<glyph unicode="&#xa7;" horiz-adv-x="1630" d="M1489 1548h-326q16 95 -31 157.5t-164 62.5q-98 0 -165 -47t-80 -119q-14 -78 44 -136.5t117 -88.5l355 -195q36 -19 84.5 -54t90.5 -88.5t61 -130.5t-5 -181q-19 -80 -71.5 -143t-117.5 -104.5t-123 -58.5l-4 -4q137 -137 104 -356q-26 -154 -120 -260t-231 -161 t-293 -55q-264 0 -406 145.5t-102 392.5h328q-19 -112 46 -172.5t189 -56.5q88 2 166.5 42t93.5 125q10 60 -15.5 102.5t-66 72t-77.5 50.5l-352 191q-50 26 -118 80.5t-108 146.5t-10 231q28 120 123 201t192 107v5q-60 70 -89.5 157t-11.5 196q24 137 111 244t220 168.5 t293 61.5q168 0 281.5 -68t163 -187.5t24.5 -272.5zM1160 714q16 63 -21.5 116t-112.5 91l-324 177q-35 20 -80 4.5t-82 -56t-50 -96.5q-15 -67 24.5 -118.5t114.5 -90.5l317 -171q32 -18 78 -4t85.5 53t50.5 95z" />
<glyph unicode="&#xa8;" horiz-adv-x="1558" d="M1264 1762q-85 0 -139 62.5t-40 148.5q13 71 71.5 118.5t128.5 47.5q89 0 141 -61t38 -150q-10 -67 -67.5 -116.5t-132.5 -49.5zM664 1762q-85 0 -138.5 63t-40.5 148q11 71 70.5 118.5t129.5 47.5q89 0 141 -61t38 -150q-10 -67 -67.5 -116.5t-132.5 -49.5z" />
<glyph unicode="&#xa9;" horiz-adv-x="2374" d="M232 1004q36 218 144.5 404.5t268.5 327t353 218.5t397 78q206 0 374 -78t282 -218.5t160.5 -327t10.5 -404.5q-36 -219 -144 -407t-268.5 -328t-354.5 -218.5t-400 -78.5q-204 0 -371 78.5t-281 218.5t-160.5 328t-10.5 407zM403 1004q-39 -244 40 -438.5t247 -308 t393 -113.5q171 0 332 65t294 182t222.5 273.5t119.5 339.5q41 242 -38.5 436t-248 307t-397.5 113q-169 0 -328.5 -65t-292 -181.5t-223 -272t-120.5 -337.5zM1428 820h221q-36 -216 -182 -324t-361 -108q-224 0 -332.5 147.5t-69.5 384.5l28 164q26 158 106 278t201.5 187 t270.5 67q215 0 325 -108t74 -324h-219q25 132 -31.5 190t-180.5 58q-134 0 -217 -97.5t-111 -250.5l-28 -164q-23 -153 29.5 -250.5t186.5 -97.5q124 0 196.5 56.5t93.5 191.5z" />
<glyph unicode="&#xaa;" horiz-adv-x="1336" d="M898 1064q-51 -46 -125.5 -79t-174.5 -33q-168 0 -244.5 85.5t-52.5 226.5q24 153 157 235.5t375 82.5h141l12 70q25 176 -135 176q-91 0 -148 -35t-69 -101l-239 18q24 140 157.5 231t330.5 91q184 0 281 -95.5t67 -284.5l-72 -432q-10 -61 -13.5 -123.5t7.5 -126.5 h-249q-6 47 -6 94zM947 1422h-142q-121 0 -184.5 -46t-72.5 -106q-19 -120 143 -120q56 0 118.5 25t105.5 59z" />
<glyph unicode="&#xab;" horiz-adv-x="1682" d="M810 220h-326l-304 600l2 8h-2l4 20l504 600h326l-482 -612zM1420 220h-326l-304 600l2 8h-2l4 20l504 600h326l-482 -612z" />
<glyph unicode="&#xac;" horiz-adv-x="1595" d="M1442 1108l-18 -108h2l-80 -484h-281l59 356h-893l40 236h1171z" />
<glyph unicode="&#xad;" horiz-adv-x="1312" d="M1155 1002l-49 -298h-921l49 298h921z" />
<glyph unicode="&#xae;" horiz-adv-x="2374" d="M232 1004q36 218 144.5 404.5t268.5 327t353 218.5t397 78q206 0 374 -78t282 -218.5t160.5 -327t10.5 -404.5q-36 -219 -144 -407t-268.5 -328t-354.5 -218.5t-400 -78.5q-204 0 -371 78.5t-281 218.5t-160.5 328t-10.5 407zM403 1004q-39 -244 40 -438.5t247 -308 t393 -113.5q171 0 332 65t294 182t222.5 273.5t119.5 339.5q41 242 -38.5 436t-248 307t-397.5 113q-169 0 -328.5 -65t-292 -181.5t-223 -272t-120.5 -337.5zM1227 900h-218l-77 -464h-213l196 1168h395q209 0 316.5 -90.5t76.5 -267.5q-24 -159 -201 -244q80 -42 103 -119 t8 -175l-16 -76q-7 -53 -8.5 -98.5t4.5 -77.5l-4 -20h-217q-7 26 -2 74.5t10 86.5q3 26 4 35l16 76q15 96 -23.5 144t-149.5 48zM1040 1084h194q92 0 169.5 40.5t92.5 119.5q15 99 -33.5 137.5t-184.5 38.5h-182z" />
<glyph unicode="&#xaf;" horiz-adv-x="1483" d="M1434 2048l-36 -221h-963l35 221h964z" />
<glyph unicode="&#xb0;" horiz-adv-x="1290" d="M697 1096q-133 0 -231.5 65t-144.5 174.5t-24 241.5q20 134 102.5 243t203 173.5t254.5 64.5q132 0 230.5 -65t146 -174t24.5 -242q-23 -132 -106.5 -241.5t-203 -174.5t-251.5 -65zM740 1352q92 0 169 65.5t93 159.5q14 94 -40.5 159.5t-146.5 65.5q-94 0 -171 -65.5 t-91 -159.5q-17 -94 37.5 -159.5t149.5 -65.5z" />
<glyph unicode="&#xb1;" d="M273 907l49 295h526l61 366h313l-61 -366h529l-49 -295h-528l-61 -366h-314l61 366h-526zM135 83l49 301h1368l-49 -301h-1368z" />
<glyph unicode="&#xb2;" horiz-adv-x="1186" d="M169 1024l30 199l551 399q106 78 168.5 134.5t74.5 127.5q13 78 -40.5 122t-146.5 44q-90 0 -160.5 -47t-85.5 -136h-268q29 181 179 291t361 110q221 0 328 -113.5t83 -274.5q-18 -118 -104.5 -220.5t-296.5 -236.5l-239 -164l-1 -9h562l-36 -226h-959z" />
<glyph unicode="&#xb3;" horiz-adv-x="1230" d="M666 1008q-227 0 -356.5 102.5t-105.5 265.5h277q-8 -64 47.5 -101t147.5 -37q107 0 184 47t90 117q12 72 -47.5 109t-177.5 37h-131l31 205h121q104 0 176 47.5t84 112.5q11 62 -26.5 99.5t-133.5 37.5q-85 0 -166 -38.5t-94 -105.5h-265q20 109 97 190t191 126.5 t245 45.5q219 0 330 -108t87 -257q-16 -106 -95 -164t-203 -75v-10q135 -16 206 -96t53 -199q-25 -157 -183 -254t-383 -97z" />
<glyph unicode="&#xb4;" horiz-adv-x="1400" d="M571 1738l300 457h355l-384 -457h-271z" />
<glyph unicode="&#xb5;" horiz-adv-x="1835" d="M-35 -563l349 2099h362l-149 -890q-25 -155 61.5 -252.5t251.5 -97.5q166 0 283.5 97.5t142.5 252.5l149 890h363l-256 -1536h-352l39 222h-12q-70 -106 -178.5 -164.5t-229.5 -58.5q-118 0 -207 58.5t-123 164.5h-12l-131 -785h-351z" />
<glyph unicode="&#xb6;" horiz-adv-x="1707" d="M1069 0l292 1756h-249l-163 -996h-118q-222 0 -362.5 83.5t-196.5 229t-26 331.5q32 184 136 329.5t271.5 230t389.5 84.5h675l-340 -2048h-309z" />
<glyph unicode="&#xb7;" horiz-adv-x="819" d="M333 776q-92 0 -152 64t-56 156q4 90 72.5 153t159.5 63q89 0 151 -63.5t57 -152.5q-6 -92 -75 -156t-157 -64z" />
<glyph unicode="&#xb8;" horiz-adv-x="954" d="M257 8h196l-32 -85q92 -14 148 -73t36 -168q-22 -142 -164 -228t-379 -86l26 178q115 0 187.5 31t85.5 96q12 64 -33 93.5t-150 40.5z" />
<glyph unicode="&#xb9;" horiz-adv-x="882" d="M911 2252l-205 -1228h-272l151 890h-12q-24 -30 -102 -58.5t-191 -27.5l30 220q90 1 162 35t117.5 81.5t54.5 87.5h267z" />
<glyph unicode="&#xba;" horiz-adv-x="1331" d="M292 1436l16 106q24 143 101.5 253.5t197 173.5t267.5 63q225 0 333 -137.5t72 -352.5l-16 -106q-36 -213 -187.5 -349.5t-375.5 -136.5q-226 0 -335 136.5t-73 349.5zM553 1542l-16 -106q-21 -123 26.5 -203.5t170.5 -80.5q119 0 191 80.5t93 203.5l16 106 q21 120 -24.5 203t-167.5 83q-120 0 -194 -83t-95 -203z" />
<glyph unicode="&#xbb;" horiz-adv-x="1688" d="M66 220l482 612l-278 616h326l304 -600l-2 -8h2l-4 -20l-504 -600h-326zM682 220l482 612l-278 616h326l304 -600l-2 -8h2l-4 -20l-504 -600h-326z" />
<glyph unicode="&#xbc;" horiz-adv-x="2454" d="M296 0l1539 2048h252l-1538 -2048h-253zM814 2048l-180 -1088h-252l133 778h-12q-24 -27 -90 -51t-172 -23l29 203q80 -1 144.5 28.5t105 72t48.5 80.5h246zM1289 182l33 202l633 704h321l-116 -700h152l-29 -206h-157l-30 -182h-247l31 182h-591zM1919 388l72 426h-6 l-403 -419v-7h337z" />
<glyph unicode="&#xbd;" horiz-adv-x="2542" d="M296 0l1539 2048h252l-1538 -2048h-253zM814 2048l-180 -1088h-252l133 778h-12q-24 -27 -90 -51t-172 -23l29 203q80 -1 144.5 28.5t105 72t48.5 80.5h246zM1449 0l33 184l496 349q87 62 145.5 112.5t69.5 111.5q11 67 -36 106t-132 39q-79 0 -141.5 -40.5t-77.5 -117.5 h-247q26 160 161 260t331 100q197 0 295.5 -102t77.5 -248q-15 -103 -93.5 -196.5t-270.5 -207.5l-206 -132l-2 -10h503l-33 -208h-873z" />
<glyph unicode="&#xbe;" horiz-adv-x="2696" d="M538 0l1539 2048h252l-1538 -2048h-253zM1531 182l33 202l633 704h321l-116 -700h152l-29 -206h-157l-30 -182h-247l31 182h-591zM2161 388l72 426h-6l-403 -419v-7h337zM598 944q-132 0 -234 40.5t-154 115t-36 176.5h256q-7 -56 45 -88t130 -32q93 0 163 42t80 104 q10 56 -43.5 86.5t-157.5 30.5h-120l27 188h110q88 0 154.5 39.5t78.5 104.5q10 50 -27 80.5t-115 30.5q-79 0 -149 -33.5t-81 -88.5h-245q16 95 85.5 168t173.5 114.5t223 41.5q134 0 223.5 -46.5t130 -121t26.5 -158.5q-15 -97 -91 -148.5t-177 -63.5v-8 q129 -16 189 -89.5t43 -178.5q-22 -132 -164.5 -219t-343.5 -87z" />
<glyph unicode="&#xbf;" horiz-adv-x="1532" d="M1025 919l-5 -33q-31 -178 -82.5 -283.5t-125 -170.5t-168.5 -120q-100 -58 -175 -132t-91 -180q-20 -118 48 -188.5t183 -70.5q106 0 205 68.5t128 209.5h356q-37 -190 -145.5 -317.5t-263 -192t-329.5 -64.5q-191 0 -325.5 67t-196 190.5t-33.5 292.5 q28 172 128.5 289.5t250.5 198.5q135 73 205 160t98 243l5 33h333zM932 1543q92 0 152 -64t56 -156q-4 -90 -72.5 -153t-159.5 -63q-89 0 -151 63.5t-57 152.5q6 92 75 156t157 64z" />
<glyph unicode="&#xc0;" horiz-adv-x="2038" d="M337 0h-396l1061 2048h458l382 -2048h-396l-85 505h-770zM740 803h570l-139 825h-16zM1406 2250h-271l-230 457h354z" />
<glyph unicode="&#xc1;" horiz-adv-x="2038" d="M337 0h-396l1061 2048h458l382 -2048h-396l-85 505h-770zM740 803h570l-139 825h-16zM1129 2250l300 457h355l-384 -457h-271z" />
<glyph unicode="&#xc2;" horiz-adv-x="2038" d="M337 0h-396l1061 2048h458l382 -2048h-396l-85 505h-770zM740 803h570l-139 825h-16zM1058.8 2232l246.766 256l160.234 -256h317l2.63574 14l-305.959 432h-283l-451.041 -432l-2.63574 -14h316z" />
<glyph unicode="&#xc3;" horiz-adv-x="2038" d="M337 0h-396l1061 2048h458l382 -2048h-396l-85 505h-770zM740 803h570l-139 825h-16zM973 2250l-217 5q29 179 137.5 279.5t241.5 100.5q88 0 141 -35.5t97.5 -71t107.5 -35.5q57 0 98 43t51 110l213 -9q-30 -179 -138.5 -277.5t-242.5 -99.5q-73 0 -117.5 21.5 t-76.5 49.5t-65 49.5t-83 21.5q-53 0 -94 -42t-53 -110z" />
<glyph unicode="&#xc4;" horiz-adv-x="2038" d="M337 0h-396l1061 2048h458l382 -2048h-396l-85 505h-770zM740 803h570l-139 825h-16zM1592 2274q-85 0 -139 62.5t-40 148.5q13 71 71.5 118.5t128.5 47.5q89 0 141 -61t38 -150q-10 -67 -67.5 -116.5t-132.5 -49.5zM992 2274q-85 0 -138.5 63t-40.5 148 q11 71 70.5 118.5t129.5 47.5q89 0 141 -61t38 -150q-10 -67 -67.5 -116.5t-132.5 -49.5z" />
<glyph unicode="&#xc5;" horiz-adv-x="2038" d="M337 0h-396l1061 2048h458l382 -2048h-396l-85 505h-770zM740 803h570l-139 825h-16zM1252 2166q-133 0 -214.5 91.5t-60.5 219.5q14 86 68.5 156.5t135.5 112t171 41.5q137 0 220.5 -90t58.5 -220q-25 -133 -130 -222t-249 -89zM1279 2333q61 0 114.5 43t60.5 101 q8 63 -27.5 103.5t-101.5 40.5q-59 0 -109.5 -43.5t-61.5 -100.5q-10 -60 26 -102t99 -42z" />
<glyph unicode="&#xc6;" horiz-adv-x="2863" d="M-59 0l1255 2048h1702l-52 -311h-961l-92 -556h892l-52 -311h-892l-92 -559h969l-52 -311h-1340l84 505h-658l-303 -505h-408zM830 803h530l147 887h-145z" />
<glyph unicode="&#xc7;" horiz-adv-x="2094" d="M2050 1357h-368q-1 184 -113.5 285t-292.5 101q-172 0 -320 -87t-251.5 -252.5t-142.5 -401.5q-56 -344 69 -520.5t364 -176.5q193 0 350 98t223 277h373q-61 -196 -197.5 -356.5t-331.5 -256t-434 -95.5q-275 0 -470 128.5t-280.5 369t-30.5 576.5q55 327 213 557 t385.5 351.5t489.5 121.5q232 0 406 -85t269.5 -245.5t89.5 -388.5zM866 2h196l-32 -85q92 -14 148 -73t36 -168q-22 -142 -164 -228t-379 -86l26 178q115 0 187.5 31t85.5 96q12 64 -33 93.5t-150 40.5z" />
<glyph unicode="&#xc8;" horiz-adv-x="1711" d="M74 0l340 2048h1332l-52 -311h-961l-92 -556h892l-52 -311h-892l-92 -559h969l-52 -311h-1340zM1255 2250h-271l-230 457h354z" />
<glyph unicode="&#xc9;" horiz-adv-x="1711" d="M74 0l340 2048h1332l-52 -311h-961l-92 -556h892l-52 -311h-892l-92 -559h969l-52 -311h-1340zM978 2250l300 457h355l-384 -457h-271z" />
<glyph unicode="&#xca;" horiz-adv-x="1711" d="M74 0l340 2048h1332l-52 -311h-961l-92 -556h892l-52 -311h-892l-92 -559h969l-52 -311h-1340zM908.804 2232l246.766 256l160.234 -256h317l2.63574 14l-305.959 432h-283l-451.041 -432l-2.63574 -14h316z" />
<glyph unicode="&#xcb;" horiz-adv-x="1711" d="M74 0l340 2048h1332l-52 -311h-961l-92 -556h892l-52 -311h-892l-92 -559h969l-52 -311h-1340zM1441 2274q-85 0 -139 62.5t-40 148.5q13 71 71.5 118.5t128.5 47.5q89 0 141 -61t38 -150q-10 -67 -67.5 -116.5t-132.5 -49.5zM841 2274q-85 0 -138.5 63t-40.5 148 q11 71 70.5 118.5t129.5 47.5q89 0 141 -61t38 -150q-10 -67 -67.5 -116.5t-132.5 -49.5z" />
<glyph unicode="&#xcc;" horiz-adv-x="774" d="M785 2048l-340 -2048h-371l340 2048h371zM772 2250h-271l-230 457h354z" />
<glyph unicode="&#xcd;" horiz-adv-x="774" d="M785 2048l-340 -2048h-371l340 2048h371zM495 2250l300 457h355l-384 -457h-271z" />
<glyph unicode="&#xce;" horiz-adv-x="774" d="M785 2048l-340 -2048h-371l340 2048h371zM424.804 2232l246.766 256l160.234 -256h317l2.63574 14l-305.959 432h-283l-451.041 -432l-2.63574 -14h316z" />
<glyph unicode="&#xcf;" horiz-adv-x="774" d="M785 2048l-340 -2048h-371l340 2048h371zM958 2274q-85 0 -139 62.5t-40 148.5q13 71 71.5 118.5t128.5 47.5q89 0 141 -61t38 -150q-10 -67 -67.5 -116.5t-132.5 -49.5zM358 2274q-85 0 -138.5 63t-40.5 148q11 71 70.5 118.5t129.5 47.5q89 0 141 -61t38 -150 q-10 -67 -67.5 -116.5t-132.5 -49.5z" />
<glyph unicode="&#xd0;" horiz-adv-x="2040" d="M-35 958l40 229h959l-40 -229h-959zM778 0h-704l340 2048h698q305 0 506 -125.5t282.5 -359t27.5 -557.5q-52 -315 -205 -540.5t-393 -345.5t-552 -120zM498 321h299q320 0 515.5 182.5t254.5 543.5q116 680 -510 680h-325z" />
<glyph unicode="&#xd1;" horiz-adv-x="2086" d="M2097 2048l-340 -2048h-330l-733 1395h-16l-233 -1395h-371l340 2048h332l732 -1396h19l231 1396h369zM996 2235l-217 5q29 179 137.5 279.5t241.5 100.5q88 0 141 -35.5t97.5 -71t107.5 -35.5q57 0 98 43t51 110l213 -9q-30 -179 -138.5 -277.5t-242.5 -99.5 q-73 0 -117.5 21.5t-76.5 49.5t-65 49.5t-83 21.5q-53 0 -94 -42t-53 -110z" />
<glyph unicode="&#xd2;" horiz-adv-x="2182" d="M2070 1000q-54 -325 -212.5 -555t-385.5 -351.5t-490 -121.5q-275 0 -471.5 128t-283 368.5t-31.5 576.5q54 326 212.5 556.5t387 352.5t493.5 122q273 0 468.5 -128.5t282 -369.5t30.5 -578zM1705 1045q56 341 -66.5 519.5t-364.5 178.5q-173 0 -321 -86.5 t-250.5 -252.5t-140.5 -404q-59 -343 66.5 -519t365.5 -176q173 0 319.5 86t249.5 251t142 403zM1475 2250h-271l-230 457h354z" />
<glyph unicode="&#xd3;" horiz-adv-x="2182" d="M2070 1000q-54 -325 -212.5 -555t-385.5 -351.5t-490 -121.5q-275 0 -471.5 128t-283 368.5t-31.5 576.5q54 326 212.5 556.5t387 352.5t493.5 122q273 0 468.5 -128.5t282 -369.5t30.5 -578zM1705 1045q56 341 -66.5 519.5t-364.5 178.5q-173 0 -321 -86.5 t-250.5 -252.5t-140.5 -404q-59 -343 66.5 -519t365.5 -176q173 0 319.5 86t249.5 251t142 403zM1198 2250l300 457h355l-384 -457h-271z" />
<glyph unicode="&#xd4;" horiz-adv-x="2182" d="M2070 1000q-54 -325 -212.5 -555t-385.5 -351.5t-490 -121.5q-275 0 -471.5 128t-283 368.5t-31.5 576.5q54 326 212.5 556.5t387 352.5t493.5 122q273 0 468.5 -128.5t282 -369.5t30.5 -578zM1705 1045q56 341 -66.5 519.5t-364.5 178.5q-173 0 -321 -86.5 t-250.5 -252.5t-140.5 -404q-59 -343 66.5 -519t365.5 -176q173 0 319.5 86t249.5 251t142 403zM1128.8 2232l246.766 256l160.234 -256h317l2.63574 14l-305.959 432h-283l-451.041 -432l-2.63574 -14h316z" />
<glyph unicode="&#xd5;" horiz-adv-x="2182" d="M2070 1000q-54 -325 -212.5 -555t-385.5 -351.5t-490 -121.5q-275 0 -471.5 128t-283 368.5t-31.5 576.5q54 326 212.5 556.5t387 352.5t493.5 122q273 0 468.5 -128.5t282 -369.5t30.5 -578zM1705 1045q56 341 -66.5 519.5t-364.5 178.5q-173 0 -321 -86.5 t-250.5 -252.5t-140.5 -404q-59 -343 66.5 -519t365.5 -176q173 0 319.5 86t249.5 251t142 403zM1042 2250l-217 5q29 179 137.5 279.5t241.5 100.5q88 0 141 -35.5t97.5 -71t107.5 -35.5q57 0 98 43t51 110l213 -9q-30 -179 -138.5 -277.5t-242.5 -99.5q-73 0 -117.5 21.5 t-76.5 49.5t-65 49.5t-83 21.5q-53 0 -94 -42t-53 -110z" />
<glyph unicode="&#xd6;" horiz-adv-x="2182" d="M2070 1000q-54 -325 -212.5 -555t-385.5 -351.5t-490 -121.5q-275 0 -471.5 128t-283 368.5t-31.5 576.5q54 326 212.5 556.5t387 352.5t493.5 122q273 0 468.5 -128.5t282 -369.5t30.5 -578zM1705 1045q56 341 -66.5 519.5t-364.5 178.5q-173 0 -321 -86.5 t-250.5 -252.5t-140.5 -404q-59 -343 66.5 -519t365.5 -176q173 0 319.5 86t249.5 251t142 403zM1661 2274q-85 0 -139 62.5t-40 148.5q13 71 71.5 118.5t128.5 47.5q89 0 141 -61t38 -150q-10 -67 -67.5 -116.5t-132.5 -49.5zM1061 2274q-85 0 -138.5 63t-40.5 148 q11 71 70.5 118.5t129.5 47.5q89 0 141 -61t38 -150q-10 -67 -67.5 -116.5t-132.5 -49.5z" />
<glyph unicode="&#xd7;" d="M1298 114l-395 473l-552 -473l-189 225l552 474l-394 472l262 227l395 -474l553 474l188 -227l-552 -473l395 -473z" />
<glyph unicode="&#xd8;" horiz-adv-x="2185" d="M424 -94l-171 124l131 174q-129 138 -181.5 350.5t-6.5 488.5q54 326 212.5 556.5t387 352.5t493.5 122q245 0 429 -104l127 168l171 -124l-132 -175q128 -139 180 -351.5t6 -489.5q-54 -325 -212.5 -555t-385.5 -351.5t-490 -121.5q-246 0 -431 104zM612 506l893 1181 q-98 54 -231 54q-173 0 -321 -86.5t-250.5 -252.5t-140.5 -404q-27 -159 -13 -282.5t63 -209.5zM1705 1043q26 158 12 281.5t-62 211.5l-891 -1180q98 -53 230 -53q173 0 319.5 86t249.5 251t142 403z" />
<glyph unicode="&#xd9;" horiz-adv-x="2066" d="M1706 2048h370l-224 -1354q-38 -232 -174.5 -394t-338.5 -246.5t-438 -84.5q-238 0 -412.5 84.5t-256 246.5t-42.5 394l224 1354h371l-223 -1345q-31 -190 84 -295t308 -105q129 0 242 47.5t190 137t98 215.5zM1419 2250h-271l-230 457h354z" />
<glyph unicode="&#xda;" horiz-adv-x="2066" d="M1706 2048h370l-224 -1354q-38 -232 -174.5 -394t-338.5 -246.5t-438 -84.5q-238 0 -412.5 84.5t-256 246.5t-42.5 394l224 1354h371l-223 -1345q-31 -190 84 -295t308 -105q129 0 242 47.5t190 137t98 215.5zM1142 2250l300 457h355l-384 -457h-271z" />
<glyph unicode="&#xdb;" horiz-adv-x="2066" d="M1706 2048h370l-224 -1354q-38 -232 -174.5 -394t-338.5 -246.5t-438 -84.5q-238 0 -412.5 84.5t-256 246.5t-42.5 394l224 1354h371l-223 -1345q-31 -190 84 -295t308 -105q129 0 242 47.5t190 137t98 215.5zM1072.8 2232l246.766 256l160.234 -256h317l2.63574 14 l-305.959 432h-283l-451.041 -432l-2.63574 -14h316z" />
<glyph unicode="&#xdc;" horiz-adv-x="2066" d="M1706 2048h370l-224 -1354q-38 -232 -174.5 -394t-338.5 -246.5t-438 -84.5q-238 0 -412.5 84.5t-256 246.5t-42.5 394l224 1354h371l-223 -1345q-31 -190 84 -295t308 -105q129 0 242 47.5t190 137t98 215.5zM1605 2274q-85 0 -139 62.5t-40 148.5q13 71 71.5 118.5 t128.5 47.5q89 0 141 -61t38 -150q-10 -67 -67.5 -116.5t-132.5 -49.5zM1005 2274q-85 0 -138.5 63t-40.5 148q11 71 70.5 118.5t129.5 47.5q89 0 141 -61t38 -150q-10 -67 -67.5 -116.5t-132.5 -49.5z" />
<glyph unicode="&#xdd;" horiz-adv-x="1984" d="M274 2048h419l351 -906h22l649 906h419l-958 -1284l-127 -764h-370l127 764zM1101 2250l300 457h355l-384 -457h-271z" />
<glyph unicode="&#xde;" horiz-adv-x="1851" d="M406 2048h371l-65 -392h331q238 0 389 -81t213.5 -220t32.5 -313q-28 -174 -136 -312.5t-285.5 -219t-414.5 -80.5h-334l-71 -430h-371zM558 726h332q194 0 301.5 88t131.5 224q23 138 -56 229.5t-273 91.5h-331z" />
<glyph unicode="&#xdf;" horiz-adv-x="1818" d="M74 0l250 1513q29 176 133.5 302t266 193.5t361.5 67.5q190 0 334.5 -62.5t216 -184.5t43.5 -299q-25 -169 -127 -281t-249 -155l-4 -22q197 -16 294.5 -153.5t61.5 -354.5q-30 -175 -131.5 -301.5t-256.5 -194.5t-345 -68h-255l51 305h210q145 0 245.5 79t119.5 207 q21 134 -60.5 216.5t-242.5 82.5h-165l47 296h114q123 0 210.5 87.5t106.5 203.5q21 123 -47 205.5t-211 82.5q-142 0 -242.5 -80.5t-122.5 -213.5l-244 -1471h-362z" />
<glyph unicode="&#xe0;" horiz-adv-x="1618" d="M496 -31q-219 0 -347 118t-91 344q29 173 128.5 268.5t240 139t291.5 59.5q206 22 298.5 42t105.5 96v6q18 113 -36 175t-180 62q-132 0 -222 -57.5t-131 -137.5l-328 48q93 210 286.5 317t435.5 107q110 0 215.5 -26t187 -86t120 -162t12.5 -254l-171 -1028h-348l36 211 h-12q-64 -97 -187 -169.5t-304 -72.5zM633 235q163 0 275.5 94t133.5 222l30 181q-26 -19 -90 -33.5t-134.5 -24.5t-118.5 -17q-124 -17 -214 -66t-106 -154q-16 -99 47.5 -150.5t176.5 -51.5zM1130 1738h-271l-230 457h354z" />
<glyph unicode="&#xe1;" horiz-adv-x="1618" d="M496 -31q-219 0 -347 118t-91 344q29 173 128.5 268.5t240 139t291.5 59.5q206 22 298.5 42t105.5 96v6q18 113 -36 175t-180 62q-132 0 -222 -57.5t-131 -137.5l-328 48q93 210 286.5 317t435.5 107q110 0 215.5 -26t187 -86t120 -162t12.5 -254l-171 -1028h-348l36 211 h-12q-64 -97 -187 -169.5t-304 -72.5zM633 235q163 0 275.5 94t133.5 222l30 181q-26 -19 -90 -33.5t-134.5 -24.5t-118.5 -17q-124 -17 -214 -66t-106 -154q-16 -99 47.5 -150.5t176.5 -51.5zM853 1738l300 457h355l-384 -457h-271z" />
<glyph unicode="&#xe2;" horiz-adv-x="1618" d="M496 -31q-219 0 -347 118t-91 344q29 173 128.5 268.5t240 139t291.5 59.5q206 22 298.5 42t105.5 96v6q18 113 -36 175t-180 62q-132 0 -222 -57.5t-131 -137.5l-328 48q93 210 286.5 317t435.5 107q110 0 215.5 -26t187 -86t120 -162t12.5 -254l-171 -1028h-348l36 211 h-12q-64 -97 -187 -169.5t-304 -72.5zM633 235q163 0 275.5 94t133.5 222l30 181q-26 -19 -90 -33.5t-134.5 -24.5t-118.5 -17q-124 -17 -214 -66t-106 -154q-16 -99 47.5 -150.5t176.5 -51.5zM782.804 1720l246.766 256l160.234 -256h317l2.63574 14l-305.959 432h-283 l-451.041 -432l-2.63574 -14h316z" />
<glyph unicode="&#xe3;" horiz-adv-x="1618" d="M496 -31q-219 0 -347 118t-91 344q29 173 128.5 268.5t240 139t291.5 59.5q206 22 298.5 42t105.5 96v6q18 113 -36 175t-180 62q-132 0 -222 -57.5t-131 -137.5l-328 48q93 210 286.5 317t435.5 107q110 0 215.5 -26t187 -86t120 -162t12.5 -254l-171 -1028h-348l36 211 h-12q-64 -97 -187 -169.5t-304 -72.5zM633 235q163 0 275.5 94t133.5 222l30 181q-26 -19 -90 -33.5t-134.5 -24.5t-118.5 -17q-124 -17 -214 -66t-106 -154q-16 -99 47.5 -150.5t176.5 -51.5zM695 1723l-217 5q29 179 137.5 279.5t241.5 100.5q88 0 141 -35.5t97.5 -71 t107.5 -35.5q57 0 98 43t51 110l213 -9q-30 -179 -138.5 -277.5t-242.5 -99.5q-73 0 -117.5 21.5t-76.5 49.5t-65 49.5t-83 21.5q-53 0 -94 -42t-53 -110z" />
<glyph unicode="&#xe4;" horiz-adv-x="1618" d="M496 -31q-219 0 -347 118t-91 344q29 173 128.5 268.5t240 139t291.5 59.5q206 22 298.5 42t105.5 96v6q18 113 -36 175t-180 62q-132 0 -222 -57.5t-131 -137.5l-328 48q93 210 286.5 317t435.5 107q110 0 215.5 -26t187 -86t120 -162t12.5 -254l-171 -1028h-348l36 211 h-12q-64 -97 -187 -169.5t-304 -72.5zM633 235q163 0 275.5 94t133.5 222l30 181q-26 -19 -90 -33.5t-134.5 -24.5t-118.5 -17q-124 -17 -214 -66t-106 -154q-16 -99 47.5 -150.5t176.5 -51.5zM1316 1762q-85 0 -139 62.5t-40 148.5q13 71 71.5 118.5t128.5 47.5 q89 0 141 -61t38 -150q-10 -67 -67.5 -116.5t-132.5 -49.5zM716 1762q-85 0 -138.5 63t-40.5 148q11 71 70.5 118.5t129.5 47.5q89 0 141 -61t38 -150q-10 -67 -67.5 -116.5t-132.5 -49.5z" />
<glyph unicode="&#xe5;" horiz-adv-x="1618" d="M496 -31q-219 0 -347 118t-91 344q29 173 128.5 268.5t240 139t291.5 59.5q206 22 298.5 42t105.5 96v6q18 113 -36 175t-180 62q-132 0 -222 -57.5t-131 -137.5l-328 48q93 210 286.5 317t435.5 107q110 0 215.5 -26t187 -86t120 -162t12.5 -254l-171 -1028h-348l36 211 h-12q-64 -97 -187 -169.5t-304 -72.5zM633 235q163 0 275.5 94t133.5 222l30 181q-26 -19 -90 -33.5t-134.5 -24.5t-118.5 -17q-124 -17 -214 -66t-106 -154q-16 -99 47.5 -150.5t176.5 -51.5zM1002 1703q-146 0 -236.5 96.5t-75.5 235.5q10 93 66 170t140.5 123t181.5 46 q146 0 235 -99.5t74 -239.5q-10 -92 -65 -167.5t-139 -120t-181 -44.5zM1023 1873q72 0 125 49t60 113q8 65 -35 116t-115 51q-73 0 -125.5 -51t-60.5 -116q-7 -64 35.5 -113t115.5 -49z" />
<glyph unicode="&#xe6;" horiz-adv-x="2583" d="M1666 -30q-195 0 -330.5 77t-186.5 214h-11q-51 -86 -148.5 -152t-221.5 -103t-256 -37q-232 0 -361.5 118t-92.5 344q29 173 128.5 268.5t240 139t291.5 59.5q207 22 299 42t105 96v6q18 113 -38 175t-182 62q-132 0 -220 -57.5t-129 -137.5l-328 48q94 210 287 317 t440 107q81 0 165 -18t152.5 -64.5t104.5 -132.5q211 215 520 215q189 0 334.5 -82t214 -253.5t23.5 -440.5l-18 -111h-1070q-29 -197 59.5 -307t263.5 -110q116 0 210 50t148 148l331 -38q-82 -200 -277 -321t-447 -121zM633 235q163 0 275.5 94t133.5 222l30 181 q-26 -19 -90 -33.5t-134.5 -24.5t-118.5 -17q-124 -17 -214 -66t-106 -154q-16 -99 47.5 -150.5t176.5 -51.5zM1418 913h721q26 157 -53 259t-235 102q-108 0 -198 -49.5t-151 -132t-84 -179.5z" />
<glyph unicode="&#xe7;" horiz-adv-x="1626" d="M724 -30q-230 0 -378 101t-206.5 280t-19.5 411q38 235 157 413.5t301.5 279.5t407.5 101q281 0 435.5 -151t132.5 -401h-347q-2 111 -68.5 185.5t-196.5 74.5q-169 0 -293.5 -131.5t-161.5 -364.5q-39 -235 40.5 -369t248.5 -134q119 0 213.5 68t139.5 192h346 q-42 -163 -146 -288.5t-258 -196t-347 -70.5zM638 8h196l-32 -85q92 -14 148 -73t36 -168q-22 -142 -164 -228t-379 -86l26 178q115 0 187.5 31t85.5 96q12 64 -33 93.5t-150 40.5z" />
<glyph unicode="&#xe8;" horiz-adv-x="1671" d="M734 -30q-231 0 -382 97t-211.5 274.5t-20.5 417.5q39 237 159 416.5t300.5 280t399.5 100.5q189 0 335 -82t214 -253.5t23 -440.5l-17 -111h-1071l-1 -5q-34 -216 53.5 -314t270.5 -98q119 0 212 50t147 148l331 -38q-82 -200 -277.5 -321t-464.5 -121zM506 913h719 q26 157 -52 259t-235 102q-104 0 -195 -52t-154 -134.5t-83 -174.5zM1135 1738h-271l-230 457h354z" />
<glyph unicode="&#xe9;" horiz-adv-x="1671" d="M734 -30q-231 0 -382 97t-211.5 274.5t-20.5 417.5q39 237 159 416.5t300.5 280t399.5 100.5q189 0 335 -82t214 -253.5t23 -440.5l-17 -111h-1071l-1 -5q-34 -216 53.5 -314t270.5 -98q119 0 212 50t147 148l331 -38q-82 -200 -277.5 -321t-464.5 -121zM506 913h719 q26 157 -52 259t-235 102q-104 0 -195 -52t-154 -134.5t-83 -174.5zM858 1738l300 457h355l-384 -457h-271z" />
<glyph unicode="&#xea;" horiz-adv-x="1671" d="M734 -30q-231 0 -382 97t-211.5 274.5t-20.5 417.5q39 237 159 416.5t300.5 280t399.5 100.5q189 0 335 -82t214 -253.5t23 -440.5l-17 -111h-1071l-1 -5q-34 -216 53.5 -314t270.5 -98q119 0 212 50t147 148l331 -38q-82 -200 -277.5 -321t-464.5 -121zM506 913h719 q26 157 -52 259t-235 102q-104 0 -195 -52t-154 -134.5t-83 -174.5zM788.804 1720l246.766 256l160.234 -256h317l2.63574 14l-305.959 432h-283l-451.041 -432l-2.63574 -14h316z" />
<glyph unicode="&#xeb;" horiz-adv-x="1671" d="M734 -30q-231 0 -382 97t-211.5 274.5t-20.5 417.5q39 237 159 416.5t300.5 280t399.5 100.5q189 0 335 -82t214 -253.5t23 -440.5l-17 -111h-1071l-1 -5q-34 -216 53.5 -314t270.5 -98q119 0 212 50t147 148l331 -38q-82 -200 -277.5 -321t-464.5 -121zM506 913h719 q26 157 -52 259t-235 102q-104 0 -195 -52t-154 -134.5t-83 -174.5zM1322 1762q-85 0 -139 62.5t-40 148.5q13 71 71.5 118.5t128.5 47.5q89 0 141 -61t38 -150q-10 -67 -67.5 -116.5t-132.5 -49.5zM722 1762q-85 0 -138.5 63t-40.5 148q11 71 70.5 118.5t129.5 47.5 q89 0 141 -61t38 -150q-10 -67 -67.5 -116.5t-132.5 -49.5z" />
<glyph unicode="&#xec;" horiz-adv-x="734" d="M58 0l256 1536h362l-256 -1536h-362zM669 1740h-271l-230 457h354z" />
<glyph unicode="&#xed;" horiz-adv-x="734" d="M58 0l256 1536h362l-256 -1536h-362zM392 1740l300 457h355l-384 -457h-271z" />
<glyph unicode="&#xee;" horiz-adv-x="734" d="M58 0l256 1536h362l-256 -1536h-362zM321.804 1722l246.766 256l160.234 -256h317l2.63574 14l-305.959 432h-283l-451.041 -432l-2.63574 -14h316z" />
<glyph unicode="&#xef;" horiz-adv-x="734" d="M58 0l256 1536h362l-256 -1536h-362zM855 1764q-85 0 -139 62.5t-40 148.5q13 71 71.5 118.5t128.5 47.5q89 0 141 -61t38 -150q-10 -67 -67.5 -116.5t-132.5 -49.5zM255 1764q-85 0 -138.5 63t-40.5 148q11 71 70.5 118.5t129.5 47.5q89 0 141 -61t38 -150 q-10 -67 -67.5 -116.5t-132.5 -49.5z" />
<glyph unicode="&#xf0;" horiz-adv-x="1618" d="M1482 1902l-246 -114q151 -196 229 -456.5t25 -579.5q-40 -248 -154.5 -423.5t-284 -268t-375.5 -92.5q-209 0 -347 95t-195 261t-23 380q36 212 138.5 369t242.5 249t285 107q132 10 228 -36.5t141 -124.5h20q-34 101 -84.5 197t-134.5 190l-381 -177l-66 193l287 133 q-91 71 -205 138l197 234q82 -45 161.5 -102.5t152.5 -127.5l321 148zM736 260q169 0 279.5 117t144.5 322q32 200 -35 327.5t-242 127.5q-166 0 -276.5 -119.5t-144.5 -328.5q-33 -202 34 -324t240 -122z" />
<glyph unicode="&#xf1;" horiz-adv-x="1717" d="M570 900l-148 -900h-363l256 1536h347l-44 -261h19q72 129 202.5 205t302.5 76q236 0 356 -150.5t74 -427.5l-164 -978h-362l153 922q26 153 -38.5 240.5t-206.5 87.5t-248.5 -91.5t-135.5 -258.5zM725 1723l-217 5q29 179 137.5 279.5t241.5 100.5q88 0 141 -35.5 t97.5 -71t107.5 -35.5q57 0 98 43t51 110l213 -9q-30 -179 -138.5 -277.5t-242.5 -99.5q-73 0 -117.5 21.5t-76.5 49.5t-65 49.5t-83 21.5q-53 0 -94 -42t-53 -110z" />
<glyph unicode="&#xf2;" horiz-adv-x="1712" d="M734 -30q-227 0 -377.5 100.5t-212 281t-22.5 419.5q39 236 157 412.5t297.5 274.5t401.5 98q227 0 377.5 -100.5t212 -281.5t22.5 -422q-39 -235 -157.5 -411t-297.5 -273.5t-401 -97.5zM763 260q126 0 222 68.5t157.5 185t84.5 259.5q23 138 2 250.5t-90 179t-190 66.5 q-126 0 -222 -69t-157.5 -186t-84.5 -260q-22 -138 -1.5 -250t89.5 -178t190 -66zM1157 1738h-271l-230 457h354z" />
<glyph unicode="&#xf3;" horiz-adv-x="1712" d="M734 -30q-227 0 -377.5 100.5t-212 281t-22.5 419.5q39 236 157 412.5t297.5 274.5t401.5 98q227 0 377.5 -100.5t212 -281.5t22.5 -422q-39 -235 -157.5 -411t-297.5 -273.5t-401 -97.5zM763 260q126 0 222 68.5t157.5 185t84.5 259.5q23 138 2 250.5t-90 179t-190 66.5 q-126 0 -222 -69t-157.5 -186t-84.5 -260q-22 -138 -1.5 -250t89.5 -178t190 -66zM880 1738l300 457h355l-384 -457h-271z" />
<glyph unicode="&#xf4;" horiz-adv-x="1712" d="M734 -30q-227 0 -377.5 100.5t-212 281t-22.5 419.5q39 236 157 412.5t297.5 274.5t401.5 98q227 0 377.5 -100.5t212 -281.5t22.5 -422q-39 -235 -157.5 -411t-297.5 -273.5t-401 -97.5zM763 260q126 0 222 68.5t157.5 185t84.5 259.5q23 138 2 250.5t-90 179t-190 66.5 q-126 0 -222 -69t-157.5 -186t-84.5 -260q-22 -138 -1.5 -250t89.5 -178t190 -66zM809.804 1720l246.766 256l160.234 -256h317l2.63574 14l-305.959 432h-283l-451.041 -432l-2.63574 -14h316z" />
<glyph unicode="&#xf5;" horiz-adv-x="1666" d="M760 1723l-217 5q29 179 137.5 279.5t241.5 100.5q88 0 141 -35.5t97.5 -71t107.5 -35.5q57 0 98 43t51 110l213 -9q-30 -179 -138.5 -277.5t-242.5 -99.5q-73 0 -117.5 21.5t-76.5 49.5t-65 49.5t-83 21.5q-53 0 -94 -42t-53 -110zM737 -30q-227 0 -377.5 100.5 t-212 281t-22.5 419.5q39 236 157 412.5t297.5 274.5t401.5 98q227 0 377.5 -100.5t212 -281.5t22.5 -422q-39 -235 -157.5 -411t-297.5 -273.5t-401 -97.5zM766 260q126 0 222 68.5t157.5 185t84.5 259.5q23 138 2 250.5t-90 179t-190 66.5q-126 0 -222 -69t-157.5 -186 t-84.5 -260q-22 -138 -1.5 -250t89.5 -178t190 -66z" />
<glyph unicode="&#xf6;" horiz-adv-x="1712" d="M734 -30q-227 0 -377.5 100.5t-212 281t-22.5 419.5q39 236 157 412.5t297.5 274.5t401.5 98q227 0 377.5 -100.5t212 -281.5t22.5 -422q-39 -235 -157.5 -411t-297.5 -273.5t-401 -97.5zM763 260q126 0 222 68.5t157.5 185t84.5 259.5q23 138 2 250.5t-90 179t-190 66.5 q-126 0 -222 -69t-157.5 -186t-84.5 -260q-22 -138 -1.5 -250t89.5 -178t190 -66zM1343 1762q-85 0 -139 62.5t-40 148.5q13 71 71.5 118.5t128.5 47.5q89 0 141 -61t38 -150q-10 -67 -67.5 -116.5t-132.5 -49.5zM743 1762q-85 0 -138.5 63t-40.5 148q11 71 70.5 118.5 t129.5 47.5q89 0 141 -61t38 -150q-10 -67 -67.5 -116.5t-132.5 -49.5z" />
<glyph unicode="&#xf7;" d="M1645 963l-49 -301h-1360l49 301h1360zM1015 1137q-100 0 -160 72t-44 172q14 82 82.5 138.5t153.5 56.5q97 0 154 -70.5t42 -169.5q-13 -83 -79.5 -141t-148.5 -58zM834 50q-100 0 -159 72t-41 172q12 81 80 138t153 57q97 0 155.5 -71t40.5 -169q-13 -83 -80.5 -141 t-148.5 -58z" />
<glyph unicode="&#xf8;" horiz-adv-x="1715" d="M258 -94l-162 124l135 158q-81 105 -109.5 253.5t0.5 329.5q39 236 157 412.5t297.5 274.5t401.5 98q204 0 350 -84l125 146l159 -124l-132 -155q81 -105 110.5 -254.5t-0.5 -332.5q-39 -235 -157.5 -411t-297.5 -273.5t-401 -97.5q-204 0 -350 84zM486 487l628 735 q-67 47 -165 47q-126 0 -222 -69t-157.5 -186t-84.5 -260q-25 -153 1 -267zM763 260q126 0 222 68.5t157.5 185t84.5 259.5q25 152 -2 267l-626 -734q67 -46 164 -46z" />
<glyph unicode="&#xf9;" horiz-adv-x="1713" d="M1144 646l149 890h362l-256 -1536h-351l46 273h-16q-72 -129 -205.5 -211t-306.5 -82q-226 0 -344 150.5t-72 427.5l164 978h362l-154 -922q-22 -146 43 -232t195 -86q80 0 161.5 39t142.5 116.5t80 194.5zM1157 1738h-271l-230 457h354z" />
<glyph unicode="&#xfa;" horiz-adv-x="1713" d="M1144 646l149 890h362l-256 -1536h-351l46 273h-16q-72 -129 -205.5 -211t-306.5 -82q-226 0 -344 150.5t-72 427.5l164 978h362l-154 -922q-22 -146 43 -232t195 -86q80 0 161.5 39t142.5 116.5t80 194.5zM880 1738l300 457h355l-384 -457h-271z" />
<glyph unicode="&#xfb;" horiz-adv-x="1713" d="M1144 646l149 890h362l-256 -1536h-351l46 273h-16q-72 -129 -205.5 -211t-306.5 -82q-226 0 -344 150.5t-72 427.5l164 978h362l-154 -922q-22 -146 43 -232t195 -86q80 0 161.5 39t142.5 116.5t80 194.5zM809.804 1720l246.766 256l160.234 -256h317l2.63574 14 l-305.959 432h-283l-451.041 -432l-2.63574 -14h316z" />
<glyph unicode="&#xfc;" horiz-adv-x="1713" d="M1144 646l149 890h362l-256 -1536h-351l46 273h-16q-72 -129 -205.5 -211t-306.5 -82q-226 0 -344 150.5t-72 427.5l164 978h362l-154 -922q-22 -146 43 -232t195 -86q80 0 161.5 39t142.5 116.5t80 194.5zM1343 1762q-85 0 -139 62.5t-40 148.5q13 71 71.5 118.5 t128.5 47.5q89 0 141 -61t38 -150q-10 -67 -67.5 -116.5t-132.5 -49.5zM743 1762q-85 0 -138.5 63t-40.5 148q11 71 70.5 118.5t129.5 47.5q89 0 141 -61t38 -150q-10 -67 -67.5 -116.5t-132.5 -49.5z" />
<glyph unicode="&#xfd;" horiz-adv-x="1622" d="M173 -598q-79 0 -136.5 14t-84.5 27l130 290q113 -34 194.5 -11.5t154.5 148.5l57 103l-296 1563h379l161 -1160h16l548 1160h390l-908 -1736q-96 -181 -245.5 -289.5t-359.5 -108.5zM829 1738l300 457h355l-384 -457h-271z" />
<glyph unicode="&#xfe;" horiz-adv-x="1722" d="M398 2048h362l-116 -711h17q50 73 155 146t282 73q176 0 304 -91t184 -267t13 -432q-41 -254 -154 -431t-272 -269.5t-339 -92.5q-171 0 -253 71t-111 147h-18l-128 -767h-362zM1251 768q36 219 -34.5 355t-258.5 136q-187 0 -296 -139.5t-144 -351.5q-23 -141 -4 -253.5 t87.5 -178.5t193.5 -66q187 0 303 139t153 359z" />
<glyph unicode="&#xff;" horiz-adv-x="1622" d="M173 -598q-79 0 -136.5 14t-84.5 27l130 290q113 -34 194.5 -11.5t154.5 148.5l57 103l-296 1563h379l161 -1160h16l548 1160h390l-908 -1736q-96 -181 -245.5 -289.5t-359.5 -108.5zM1292 1762q-85 0 -139 62.5t-40 148.5q13 71 71.5 118.5t128.5 47.5q89 0 141 -61 t38 -150q-10 -67 -67.5 -116.5t-132.5 -49.5zM692 1762q-85 0 -138.5 63t-40.5 148q11 71 70.5 118.5t129.5 47.5q89 0 141 -61t38 -150q-10 -67 -67.5 -116.5t-132.5 -49.5z" />
<glyph unicode="&#x131;" horiz-adv-x="734" d="M58 0l256 1536h362l-256 -1536h-362z" />
<glyph unicode="&#x152;" horiz-adv-x="2807" d="M943 0q-267 0 -455 121t-268.5 350t-27.5 551q53 325 210 554.5t385.5 350.5t495.5 121h1557l-52 -311h-961l-92 -556h892l-52 -311h-892l-92 -559h969l-52 -311h-1565zM1220 311l236 1426h-225q-244 0 -427.5 -181t-241.5 -534q-58 -351 66 -531t370 -180h222z" />
<glyph unicode="&#x153;" horiz-adv-x="2761" d="M734 -30q-227 0 -377.5 100.5t-212 281t-22.5 419.5q39 236 157 412.5t297.5 274.5t401.5 98q227 0 377.5 -100.5t212 -281.5t22.5 -422q-39 -235 -157.5 -411t-297.5 -273.5t-401 -97.5zM763 260q126 0 222 68.5t157.5 185t84.5 259.5q23 138 2 250.5t-90 179t-190 66.5 q-126 0 -222 -69t-157.5 -186t-84.5 -260q-22 -138 -1.5 -250t89.5 -178t190 -66zM1852 -30q-231 0 -382 97t-211.5 274.5t-20.5 417.5q39 237 159 416.5t300.5 280t399.5 100.5q189 0 335 -82t214 -253.5t23 -440.5l-17 -111h-1071l-1 -5q-34 -216 53.5 -314t270.5 -98 q119 0 212 50t147 148l331 -38q-82 -200 -277.5 -321t-464.5 -121zM1624 913h719q26 157 -52 259t-235 102q-104 0 -195 -52t-154 -134.5t-83 -174.5z" />
<glyph unicode="&#x178;" horiz-adv-x="1984" d="M274 2048h419l351 -906h22l649 906h419l-958 -1284l-127 -764h-370l127 764zM1564 2274q-85 0 -139 62.5t-40 148.5q13 71 71.5 118.5t128.5 47.5q89 0 141 -61t38 -150q-10 -67 -67.5 -116.5t-132.5 -49.5zM964 2274q-85 0 -138.5 63t-40.5 148q11 71 70.5 118.5 t129.5 47.5q89 0 141 -61t38 -150q-10 -67 -67.5 -116.5t-132.5 -49.5z" />
<glyph unicode="&#x189;" horiz-adv-x="2040" d="M-35 958l40 229h959l-40 -229h-959zM778 0h-704l340 2048h698q305 0 506 -125.5t282.5 -359t27.5 -557.5q-52 -315 -205 -540.5t-393 -345.5t-552 -120zM498 321h299q320 0 515.5 182.5t254.5 543.5q116 680 -510 680h-325z" />
<glyph unicode="&#x237;" horiz-adv-x="734" d="M314 1536h362l-269 -1621q-40 -249 -202 -370.5t-419 -117.5q-15 0 -31.5 0.5t-36.5 1.5l48 295q15 -1 27 -1.5t25 -0.5q105 0 158 50.5t70 147.5z" />
<glyph unicode="&#x2c6;" horiz-adv-x="1478" d="M692.804 1720l246.766 256l160.234 -256h317l2.63574 14l-305.959 432h-283l-451.041 -432l-2.63574 -14h316z" />
<glyph unicode="&#x2c7;" horiz-adv-x="1478" d="M766 2166l162 -256l245 256h317l-2 -14l-449 -432h-283l-308 432l2 14h316z" />
<glyph unicode="&#x2d9;" horiz-adv-x="771" d="M565 1754q-86 0 -143.5 57.5t-50.5 138.5q8 82 74 139.5t153 57.5q86 0 142.5 -57.5t49.5 -139.5q-6 -81 -72.5 -138.5t-152.5 -57.5z" />
<glyph unicode="&#x2da;" horiz-adv-x="1014" d="M678 1703q-146 0 -236.5 96.5t-75.5 235.5q10 93 66 170t140.5 123t181.5 46q146 0 235 -99.5t74 -239.5q-10 -92 -65 -167.5t-139 -120t-181 -44.5zM699 1873q72 0 125 49t60 113q8 65 -35 116t-115 51q-73 0 -125.5 -51t-60.5 -116q-7 -64 35.5 -113t115.5 -49z" />
<glyph unicode="&#x2dc;" horiz-adv-x="1408" d="M568 1723l-217 5q29 179 137.5 279.5t241.5 100.5q88 0 141 -35.5t97.5 -71t107.5 -35.5q57 0 98 43t51 110l213 -9q-30 -179 -138.5 -277.5t-242.5 -99.5q-73 0 -117.5 21.5t-76.5 49.5t-65 49.5t-83 21.5q-53 0 -94 -42t-53 -110z" />
<glyph unicode="&#x2000;" horiz-adv-x="1393" />
<glyph unicode="&#x2001;" horiz-adv-x="2787" />
<glyph unicode="&#x2002;" horiz-adv-x="1393" />
<glyph unicode="&#x2003;" horiz-adv-x="2787" />
<glyph unicode="&#x2004;" horiz-adv-x="929" />
<glyph unicode="&#x2005;" horiz-adv-x="696" />
<glyph unicode="&#x2006;" horiz-adv-x="464" />
<glyph unicode="&#x2007;" horiz-adv-x="464" />
<glyph unicode="&#x2008;" horiz-adv-x="348" />
<glyph unicode="&#x2009;" horiz-adv-x="557" />
<glyph unicode="&#x200a;" horiz-adv-x="154" />
<glyph unicode="&#x2010;" horiz-adv-x="1312" d="M1155 1002l-49 -298h-921l49 298h921z" />
<glyph unicode="&#x2011;" horiz-adv-x="1312" d="M1155 1002l-49 -298h-921l49 298h921z" />
<glyph unicode="&#x2012;" horiz-adv-x="1312" d="M1155 1002l-49 -298h-921l49 298h921z" />
<glyph unicode="&#x2013;" horiz-adv-x="1408" d="M1446 1002l-48 -298h-1408l48 298h1408z" />
<glyph unicode="&#x2014;" horiz-adv-x="2816" d="M2854 1002l-48 -298h-2816l48 298h2816z" />
<glyph unicode="&#x2018;" horiz-adv-x="642" d="M253 1408l35 204q16 89 65 184t121 180.5t156 144.5l148 -109q-71 -88 -127 -185t-75 -213l-35 -206h-288z" />
<glyph unicode="&#x2019;" horiz-adv-x="642" d="M705 2048l-33 -204q-14 -88 -64 -182.5t-122 -180t-155 -146.5l-152 109q68 83 125 179.5t78 218.5l35 206h288z" />
<glyph unicode="&#x201a;" horiz-adv-x="642" d="M409 256l-33 -204q-14 -88 -64 -182.5t-122 -180t-155 -146.5l-152 109q68 83 125 179.5t78 218.5l35 206h288z" />
<glyph unicode="&#x201c;" horiz-adv-x="1149" d="M253 1408l35 204q16 89 65 184t121 180.5t156 144.5l148 -109q-71 -88 -127 -185t-75 -213l-35 -206h-288zM760 1408l35 204q16 89 65 184t121 180.5t156 144.5l148 -109q-71 -88 -127 -185t-75 -213l-35 -206h-288z" />
<glyph unicode="&#x201d;" horiz-adv-x="1147" d="M705 2048l-33 -204q-14 -88 -64 -182.5t-122 -180t-155 -146.5l-152 109q68 83 125 179.5t78 218.5l35 206h288zM1211 2048l-33 -204q-14 -88 -64 -182.5t-122 -180t-155 -146.5l-152 109q68 83 125 179.5t78 218.5l35 206h288z" />
<glyph unicode="&#x201e;" horiz-adv-x="1147" d="M406 256l-33 -204q-14 -88 -64 -182.5t-122 -180t-155 -146.5l-152 109q68 83 125 179.5t78 218.5l35 206h288zM912 256l-33 -204q-14 -88 -64 -182.5t-122 -180t-155 -146.5l-152 109q68 83 125 179.5t78 218.5l35 206h288z" />
<glyph unicode="&#x2022;" horiz-adv-x="1280" d="M583 376q-123 0 -215 61t-135.5 163.5t-23.5 225.5q20 120 94 217.5t181.5 155t227.5 57.5q124 0 215.5 -61t135.5 -163.5t24 -225.5q-20 -120 -94.5 -217.5t-182 -155t-227.5 -57.5z" />
<glyph unicode="&#x2026;" horiz-adv-x="2270" d="M308 -22q-92 0 -152 64t-56 156q4 90 72.5 153t159.5 63q89 0 151 -63.5t57 -152.5q-6 -92 -75 -156t-157 -64zM1035 -22q-92 0 -152 64t-56 156q4 90 72.5 153t159.5 63q89 0 151 -63.5t57 -152.5q-6 -92 -75 -156t-157 -64zM1761 -22q-92 0 -152 64t-56 156 q4 90 72.5 153t159.5 63q89 0 151 -63.5t57 -152.5q-6 -92 -75 -156t-157 -64z" />
<glyph unicode="&#x202f;" horiz-adv-x="557" />
<glyph unicode="&#x2039;" horiz-adv-x="1072" d="M810 220h-326l-304 600l2 8h-2l4 20l504 600h326l-482 -612z" />
<glyph unicode="&#x203a;" horiz-adv-x="1072" d="M66 220l482 612l-278 616h326l304 -600l-2 -8h2l-4 -20l-504 -600h-326z" />
<glyph unicode="&#x2044;" horiz-adv-x="792" d="M-457 0l1539 2048h252l-1538 -2048h-253z" />
<glyph unicode="&#x205f;" horiz-adv-x="696" />
<glyph unicode="&#x20ac;" horiz-adv-x="1912" d="M1595 1337l-130 -213h-700q-11 -49 -20 -102q-8 -51 -13 -98h609l-137 -216h-475q20 -204 127.5 -303t275.5 -99q132 0 241 49.5t182 101.5l91 -298q-122 -93 -268.5 -140t-301.5 -47q-319 0 -512.5 193t-209.5 543h-285l112 216h181q5 48 13 98q8 52 20 102h-257 l112 213h207q88 234 233.5 399t333.5 252.5t400 87.5q161 0 290 -50.5t223 -143.5l-187 -298q-62 57 -155 107.5t-225 50.5q-168 0 -308.5 -100t-228.5 -305h762z" />
<glyph unicode="&#x2122;" horiz-adv-x="1776" d="M1295 1312l-110 445l-74 -445h-167l122 736h200l115 -504l280 504h199l-122 -736h-166l74 446l-259 -446h-92zM426 1312l99 597h-224l23 139h614l-22 -139h-224l-100 -597h-166z" />
<glyph unicode="&#x25fc;" horiz-adv-x="1535" d="M0 1535h1535v-1535h-1535v1535z" />
<glyph horiz-adv-x="1074" d="M-19 0l33 184l496 349q87 62 145.5 112.5t69.5 111.5q11 67 -36 106t-132 39q-79 0 -141.5 -40.5t-77.5 -117.5h-247q26 160 161 260t331 100q197 0 295.5 -102t77.5 -248q-15 -103 -93.5 -196.5t-270.5 -207.5l-206 -132l-2 -10h503l-33 -208h-873z" />
<glyph horiz-adv-x="1146" d="M-19 182l33 202l633 704h321l-116 -700h152l-29 -206h-157l-30 -182h-247l31 182h-591zM611 388l72 426h-6l-403 -419v-7h337z" />
<glyph horiz-adv-x="796" d="M824 2112l-180 -1088h-252l133 778h-12q-24 -27 -90 -51t-172 -23l29 203q80 -1 144.5 28.5t105 72t48.5 80.5h246z" />
<glyph horiz-adv-x="1116" d="M608 1008q-132 0 -234 40.5t-154 115t-36 176.5h256q-7 -56 45 -88t130 -32q93 0 163 42t80 104q10 56 -43.5 86.5t-157.5 30.5h-120l27 188h110q88 0 154.5 39.5t78.5 104.5q10 50 -27 80.5t-115 30.5q-79 0 -149 -33.5t-81 -88.5h-245q16 95 85.5 168t173.5 114.5 t223 41.5q134 0 223.5 -46.5t130 -121t26.5 -158.5q-15 -97 -91 -148.5t-177 -63.5v-8q129 -16 189 -89.5t43 -178.5q-22 -132 -164.5 -219t-343.5 -87z" />
<glyph horiz-adv-x="1558" d="M1342 2242q-85 0 -139 62.5t-40 148.5q13 71 71.5 118.5t128.5 47.5q89 0 141 -61t38 -150q-10 -67 -67.5 -116.5t-132.5 -49.5zM742 2242q-85 0 -138.5 63t-40.5 148q11 71 70.5 118.5t129.5 47.5q89 0 141 -61t38 -150q-10 -67 -67.5 -116.5t-132.5 -49.5z" />
<glyph horiz-adv-x="1325" d="M614 2250l-217 5q29 179 137.5 279.5t241.5 100.5q88 0 141 -35.5t97.5 -71t107.5 -35.5q57 0 98 43t51 110l213 -9q-30 -179 -138.5 -277.5t-242.5 -99.5q-73 0 -117.5 21.5t-76.5 49.5t-65 49.5t-83 21.5q-53 0 -94 -42t-53 -110z" />
<glyph horiz-adv-x="1014" d="M740 2166q-133 0 -214.5 91.5t-60.5 219.5q14 86 68.5 156.5t135.5 112t171 41.5q137 0 220.5 -90t58.5 -220q-25 -133 -130 -222t-249 -89zM767 2333q61 0 114.5 43t60.5 101q8 63 -27.5 103.5t-101.5 40.5q-59 0 -109.5 -43.5t-61.5 -100.5q-10 -60 26 -102t99 -42z " />
</font>
</defs>
</svg>
