<?xml version="1.0" standalone="no"?>
<!DOCTYPE svg PUBLIC "-//W3C//DTD SVG 1.1//EN" "http://www.w3.org/Graphics/SVG/1.1/DTD/svg11.dtd" >
<svg xmlns="http://www.w3.org/2000/svg" xmlns:xlink="http://www.w3.org/1999/xlink" version="1.1">
<metadata></metadata>
<defs>
<font id="intersemi_bold" horiz-adv-x="1866" >
<font-face units-per-em="2816" ascent="2252" descent="-564" />
<missing-glyph horiz-adv-x="699" />
<glyph horiz-adv-x="0" />
<glyph horiz-adv-x="938" />
<glyph horiz-adv-x="0" />
<glyph unicode="&#x9;" horiz-adv-x="800" />
<glyph unicode=" "  horiz-adv-x="699" />
<glyph unicode="&#x09;" horiz-adv-x="699" />
<glyph unicode="&#xa0;" horiz-adv-x="699" />
<glyph unicode="!" horiz-adv-x="870" d="M629 2048l-33 -1446h-322l-32 1446h387zM435 -22q-91 0 -156 64.5t-64 155.5q-1 90 64 154t156 64q89 0 154 -64t66 -154q-1 -91 -66 -155.5t-154 -64.5z" />
<glyph unicode="&#x22;" horiz-adv-x="1115" d="M436 2048v-754h-276v754h276zM951 2048v-754h-276v754h276z" />
<glyph unicode="#" horiz-adv-x="1811" d="M958 0l87 528h-440l-87 -528h-280l87 528h-290l47 280h289l70 432h-287l46 280h287l87 528h280l-87 -528h440l87 528h280l-87 -528h289l-46 -280h-289l-70 -432h287l-47 -280h-286l-87 -528h-280zM651 808h440l70 432h-440z" />
<glyph unicode="$" horiz-adv-x="1828" d="M811 -256l1 229q-309 25 -491.5 188t-192.5 444h365q9 -136 98 -213t223 -98l4 605l-90 23q-253 65 -399.5 197.5t-146.5 352.5q0 165 82.5 293.5t228 207.5t333.5 98l1 233h212l-1 -233q189 -18 330.5 -96.5t221 -204.5t82.5 -285h-357q-12 108 -85.5 177.5t-193.5 90.5 l-4 -571l66 -17q154 -36 291.5 -106.5t224 -188t86.5 -295.5q-1 -252 -177.5 -415.5t-498.5 -186.5l-1 -229h-212zM1026 294q138 22 220 97.5t83 186.5q-1 106 -82 165.5t-217 99.5zM820 1236l4 517q-126 -22 -195.5 -91.5t-70.5 -166.5q-1 -107 78.5 -166.5t183.5 -92.5z " />
<glyph unicode="%" horiz-adv-x="2376" d="M1277 384v108q1 119 51.5 219.5t147 161t234.5 60.5q142 0 238.5 -60t146 -160.5t48.5 -220.5v-108q1 -119 -49 -219.5t-147 -161t-237 -60.5t-236.5 60.5t-146 161t-50.5 219.5zM236 1556v108q1 120 51.5 220.5t147.5 160.5t235 60q142 0 238 -60t145.5 -160.5 t48.5 -220.5v-108q1 -120 -49 -219.5t-146.5 -159.5t-236.5 -60q-141 0 -237.5 60t-146 160t-50.5 219zM326 0l1408 2048h251l-1408 -2048h-251zM1538 492v-108q1 -79 38.5 -145t133.5 -66t133.5 66t36.5 145v108q1 80 -35 146.5t-135 66.5q-94 0 -132.5 -66.5t-39.5 -146.5 zM499 1664v-108q1 -79 38 -145t133 -66t133 66t36 145v108q1 80 -34.5 146.5t-134.5 66.5q-95 0 -132.5 -67t-38.5 -146z" />
<glyph unicode="&#x26;" d="M798 -30q-209 0 -360.5 75.5t-233 205.5t-81.5 293q0 181 106.5 304t277.5 241q-89 110 -149.5 225.5t-60.5 252.5q0 146 67 260t187.5 180t282.5 66t278.5 -64t179 -170t62.5 -231q0 -145 -72 -259.5t-200 -207.5l-129 -95l374 -438q40 76 63 166t23 191h311 q0 -211 -51.5 -362.5t-126.5 -251.5l300 -351h-392l-131 150q-108 -93 -248.5 -136.5t-276.5 -43.5zM1126 376l-425 486l-33 -24q-102 -75 -146 -150t-44 -128q0 -121 90 -206.5t241 -85.5q167 0 317 108zM768 1267l116 79q80 52 121.5 110t41.5 136q0 66 -55.5 125 t-152.5 59q-98 0 -158.5 -65.5t-60.5 -148.5q0 -71 42 -143.5t106 -151.5z" />
<glyph unicode="'" horiz-adv-x="600" d="M436 2048v-754h-276v754h276z" />
<glyph unicode="(" horiz-adv-x="1108" d="M276 835q0 374 99.5 689t296.5 582h341q-101 -132 -183 -340t-129.5 -450.5t-47.5 -480.5q0 -237 47.5 -480t129.5 -450.5t183 -339.5h-341q-197 267 -296.5 581.5t-99.5 688.5z" />
<glyph unicode=")" horiz-adv-x="1108" d="M832 835q0 -374 -99.5 -689t-296.5 -582h-341q101 132 183 340t129.5 450.5t47.5 480.5q0 237 -47.5 480t-129.5 450.5t-183 339.5h341q197 -267 296.5 -581.5t99.5 -688.5z" />
<glyph unicode="*" horiz-adv-x="1530" d="M643 896l23 405l-340 -223l-122 212l363 182l-363 182l122 212l340 -223l-23 405h243l-22 -405l340 223l122 -212l-364 -182l364 -182l-122 -212l-340 223l22 -405h-243z" />
<glyph unicode="+" d="M776 135v523h-523v314h523v523h314v-523h523v-314h-523v-523h-314z" />
<glyph unicode="," horiz-adv-x="831" d="M611 280l-13 -110q-14 -126 -49.5 -256.5t-74.5 -240.5t-63 -173h-244q15 61 39 166.5t47 236t31 265.5l7 112h320z" />
<glyph unicode="-" horiz-adv-x="1312" d="M1117 1002v-298h-922v298h922z" />
<glyph unicode="." horiz-adv-x="818" d="M409 -22q-91 0 -156 64.5t-64 155.5q-1 90 64 154t156 64q89 0 154 -64t66 -154q-1 -91 -66 -155.5t-154 -64.5z" />
<glyph unicode="/" horiz-adv-x="1066" d="M1022 2144l-660 -2452h-317l660 2452h317z" />
<glyph unicode="0" horiz-adv-x="1878" d="M939 -39q-370 0 -579.5 279t-209.5 782q1 502 210.5 778t578.5 276t579 -276.5t210 -777.5q0 -504 -209 -783t-580 -278zM939 274q192 0 303.5 189.5t111.5 558.5q-1 366 -112.5 555.5t-302.5 189.5q-190 0 -301.5 -189.5t-112.5 -555.5q-1 -369 111 -558.5t303 -189.5z " />
<glyph unicode="1" horiz-adv-x="1305" d="M966 2048v-2048h-372v1574h-17q-30 -47 -140 -99.5t-283 -52.5v300q106 0 189 37.5t141.5 92t90.5 108.5t35 88h356z" />
<glyph unicode="2" horiz-adv-x="1750" d="M182 0v268l711 697q152 154 229 262t77 236q0 145 -97 228.5t-243 83.5q-153 0 -244.5 -91.5t-91.5 -248.5h-353q0 195 89 339t245.5 223t359.5 79q206 0 361.5 -77t242.5 -211t87 -306q0 -115 -44 -226t-154.5 -246.5t-309.5 -326.5l-353 -359v-14h892v-310h-1404z" />
<glyph unicode="3" horiz-adv-x="1835" d="M917 -28q-216 0 -383.5 74t-265 206t-102.5 305h376q7 -125 113.5 -199.5t260.5 -74.5q164 0 270 84.5t105 220.5q1 139 -108.5 227t-303.5 88h-181v286h181q159 0 259.5 82t99.5 216q1 129 -86.5 208.5t-230.5 79.5q-142 0 -246 -75t-109 -204h-357q4 172 99 302.5 t255.5 204t359.5 73.5q205 0 356.5 -76.5t235 -205.5t82.5 -285q1 -172 -101 -289.5t-269 -153.5v-16q215 -31 331 -160t115 -321q1 -173 -97 -308t-269 -212t-390 -77z" />
<glyph unicode="4" horiz-adv-x="1875" d="M145 380v295l869 1373h462v-1363h262v-305h-262v-380h-354v380h-977zM1126 685v943h-16l-585 -927v-16h601z" />
<glyph unicode="5" horiz-adv-x="1781" d="M894 -28q-200 0 -358 75.5t-251 207.5t-98 302h360q10 -126 109 -205.5t238 -79.5q164 0 270.5 110t105.5 282q1 174 -108 286t-278 113q-92 1 -181 -34t-141 -92l-335 55l107 1056h1188v-310h-881l-59 -543h12q57 68 161 112t228 44q186 0 332 -87.5t230 -240.5t84 -350 q0 -203 -93.5 -361.5t-259 -249t-382.5 -90.5z" />
<glyph unicode="6" horiz-adv-x="1825" d="M932 -28q-147 1 -287 51.5t-251.5 164.5t-177.5 305t-66 473q0 353 98.5 602.5t278.5 381.5t426 132q194 0 343 -76.5t241 -209t114 -300.5h-365q-28 122 -114.5 193.5t-218.5 71.5q-213 0 -327.5 -185.5t-115.5 -513.5h14q74 132 210.5 207.5t301.5 75.5 q180 0 323.5 -86t227.5 -236.5t83 -344.5q1 -202 -91.5 -362.5t-259 -252.5t-387.5 -91zM930 272q109 0 195 53t136 143t49 202q1 110 -48 199t-133.5 141t-193.5 52q-108 0 -195 -54t-138 -143.5t-52 -197.5q1 -107 50 -197t135 -144t195 -54z" />
<glyph unicode="7" horiz-adv-x="1653" d="M257 0l871 1724v14h-1011v310h1395v-317l-870 -1731h-385z" />
<glyph unicode="8" horiz-adv-x="1819" d="M910 -28q-223 0 -395.5 75t-269.5 205.5t-97 296.5q0 128 56.5 236.5t153.5 181t218 92.5v14q-158 35 -255.5 161.5t-96.5 292.5q0 158 88.5 282t244 195.5t353.5 71.5q197 0 351.5 -71.5t244 -195.5t89.5 -282q-1 -166 -99 -292.5t-253 -161.5v-14q119 -20 216 -92.5 t154.5 -181t57.5 -236.5q0 -166 -98 -296.5t-269.5 -205.5t-393.5 -75zM910 258q172 0 275.5 87.5t104.5 229.5q-1 146 -108.5 240.5t-271.5 94.5q-166 0 -273.5 -94t-106.5 -241q-1 -142 102.5 -229.5t277.5 -87.5zM910 1191q140 0 231.5 83.5t92.5 217.5q-1 132 -91 213 t-233 81q-145 0 -235 -81t-89 -213q-1 -133 90.5 -217t233.5 -84z" />
<glyph unicode="9" horiz-adv-x="1825" d="M893 2082q147 -1 286.5 -52t251.5 -165t178 -305t66 -473q0 -352 -98.5 -601.5t-278.5 -381.5t-426 -132q-194 0 -343.5 76t-241.5 208.5t-113 301.5h365q28 -122 114 -193.5t219 -71.5q212 0 327 185.5t116 513.5h-14q-74 -132 -210 -207.5t-302 -75.5q-179 0 -323 86 t-228 236.5t-84 344.5q0 202 92.5 362t258.5 252.5t388 91.5zM894 1782q-108 0 -194 -53t-136 -143t-50 -202q0 -110 48.5 -199.5t133.5 -141.5t194 -52q108 0 195 54.5t138 144.5t51 196q0 107 -49.5 197t-135 144.5t-195.5 54.5z" />
<glyph unicode=":" horiz-adv-x="818" d="M409 -22q-91 0 -156 64.5t-64 155.5q-1 90 64 154t156 64q89 0 154 -64t66 -154q-1 -91 -66 -155.5t-154 -64.5zM409 1075q-91 0 -156 64.5t-64 155.5q-1 90 64 154t156 64q89 0 154 -64t66 -154q-1 -91 -66 -155.5t-154 -64.5z" />
<glyph unicode=";" horiz-adv-x="828" d="M611 280l-13 -110q-14 -126 -49.5 -256.5t-74.5 -240.5t-63 -173h-244q15 61 39 166.5t47 236t31 265.5l7 112h320zM445 1075q-91 0 -156 64.5t-64 155.5q-1 90 64 154t156 64q89 0 154 -64t66 -154q-1 -91 -66 -155.5t-154 -64.5z" />
<glyph unicode="&#x3c;" d="M249 669v288l1368 632v-355l-961 -412v-18l961 -412v-355z" />
<glyph unicode="=" d="M291 338v309h1283v-309h-1283zM291 978v309h1283v-309h-1283z" />
<glyph unicode="&#x3e;" d="M1617 669l-1368 -632v355l961 412v18l-961 412v355l1368 -632v-288z" />
<glyph unicode="?" horiz-adv-x="1532" d="M532 602v26q1 180 34.5 287.5t96 173t150.5 120.5q91 57 152.5 132t61.5 180q0 118 -80.5 188.5t-195.5 70.5q-106 0 -192.5 -68.5t-93.5 -209.5h-356q5 190 92.5 317.5t232 192t319.5 64.5q191 0 336.5 -67t227 -190.5t81.5 -292.5q0 -172 -80.5 -289t-218.5 -200 q-122 -75 -177 -162.5t-57 -246.5v-26h-333zM707 -22q-91 0 -156 64.5t-64 155.5q-1 90 64 154t156 64q89 0 154 -64t66 -154q-1 -91 -66 -155.5t-154 -64.5z" />
<glyph unicode="@" horiz-adv-x="2814" d="M1472 2017q292 0 519 -88.5t383.5 -247.5t237 -371t80.5 -458q1 -228 -47.5 -420t-169 -310.5t-335.5 -126.5q-151 -8 -245.5 50.5t-112.5 170.5h-12q-35 -89 -157.5 -153t-292.5 -56q-163 8 -291 94t-201.5 243.5t-73.5 377.5q0 214 78.5 362t204 231t264.5 101 q109 15 203.5 -2.5t158 -55t79.5 -81.5h14v112h279v-952q1 -74 36.5 -120.5t99.5 -46.5q120 0 172 144.5t51 454.5q1 284 -120.5 478t-331.5 293t-477 99q-326 0 -548 -130.5t-334.5 -361.5t-112.5 -533q0 -486 262 -746t758 -260q114 0 223 18t196 42t134 42l85 -254 q-62 -32 -167.5 -62t-232 -49t-255.5 -19q-419 0 -713 151t-447.5 438.5t-154.5 694.5q1 398 156.5 691.5t449 454.5t708.5 161zM1405 1129q-168 0 -259.5 -112t-92.5 -283q1 -114 34 -214.5t109.5 -163t206.5 -62.5q190 0 268 111t76 330q-1 204 -78 299t-264 95z" />
<glyph unicode="A" horiz-adv-x="2038" d="M465 0h-396l721 2048h458l722 -2048h-396l-170 505h-770zM734 803h570l-277 825h-16z" />
<glyph unicode="B" horiz-adv-x="1851" d="M202 0v2048h784q333 0 498.5 -151t165.5 -380q0 -187 -104 -294t-254 -142v-20q109 -5 209.5 -66t164.5 -171.5t64 -265.5q0 -159 -77 -285.5t-232 -199.5t-390 -73h-829zM573 310h399q202 0 291.5 77.5t89.5 199.5q0 137 -99.5 230t-271.5 93h-409v-600zM573 1177h367 q145 0 242 78.5t97 213.5q0 119 -83.5 196t-247.5 77h-375v-565z" />
<glyph unicode="C" horiz-adv-x="2094" d="M1955 1357h-374q-32 184 -166 285t-321 101q-251 0 -411 -186t-160 -533q0 -352 160.5 -535.5t409.5 -183.5q184 0 318.5 97.5t169.5 277.5l374 -2q-28 -196 -141 -356t-297.5 -255t-428.5 -95q-270 0 -482 125.5t-334 361t-122 565.5q0 331 123 566.5t335.5 360.5 t479.5 125q227 0 411.5 -85t304.5 -245.5t151 -388.5z" />
<glyph unicode="D" horiz-adv-x="2040" d="M896 0h-694v2048h708q305 0 524.5 -122.5t337.5 -351.5t118 -548q0 -320 -118.5 -550t-341 -353t-534.5 -123zM573 321h305q644 0 644 705q0 701 -633 701h-316v-1406z" />
<glyph unicode="E" horiz-adv-x="1711" d="M202 0v2048h1332v-311h-961v-556h892v-311h-892v-559h969v-311h-1340z" />
<glyph unicode="F" horiz-adv-x="1649" d="M202 0v2048h1312v-311h-941v-556h851v-311h-851v-870h-371z" />
<glyph unicode="G" horiz-adv-x="2126" d="M1574 1394q-49 163 -172.5 256t-308.5 93q-165 0 -294 -83t-202.5 -243t-73.5 -391q0 -348 160.5 -534.5t417.5 -186.5q231 0 368 129t141 348h-472v290h831v-246q0 -264 -112 -455.5t-308 -295t-450 -103.5q-282 0 -496 127.5t-333.5 363t-119.5 559.5q0 330 123 566 t335 362t480 126q227 0 411 -87t303 -240.5t150 -354.5h-378z" />
<glyph unicode="H" horiz-adv-x="2095" d="M202 0v2048h371v-867h949v867h372v-2048h-372v870h-949v-870h-371z" />
<glyph unicode="I" horiz-adv-x="774" d="M573 2048v-2048h-371v2048h371z" />
<glyph unicode="J" horiz-adv-x="1579" d="M1010 2048h368v-1440q0 -198 -83 -340.5t-231.5 -219t-346.5 -76.5q-179 0 -323 64.5t-228 191.5t-84 316h369q2 -124 79 -195.5t201 -71.5q134 0 206 84.5t73 246.5v1440z" />
<glyph unicode="K" horiz-adv-x="1906" d="M202 0v2048h371v-941h25l799 941h453l-792 -919l799 -1129h-446l-611 878l-227 -268v-610h-371z" />
<glyph unicode="L" horiz-adv-x="1594" d="M202 0v2048h371v-1737h902v-311h-1273z" />
<glyph unicode="M" horiz-adv-x="2590" d="M202 2048h454l608 -1484h24l608 1484h454v-2048h-356v1407h-19l-566 -1401h-266l-566 1404h-19v-1410h-356v2048z" />
<glyph unicode="N" horiz-adv-x="2086" d="M1885 2048v-2048h-330l-965 1395h-17v-1395h-371v2048h332l964 -1396h18v1396h369z" />
<glyph unicode="O" horiz-adv-x="2182" d="M2032 1024q0 -331 -123.5 -566.5t-336 -360.5t-481.5 -125t-482 125.5t-336 361t-123 565.5q0 331 123 566.5t336 360.5t482 125t481.5 -125t336 -360.5t123.5 -566.5zM1659 1024q0 350 -158.5 534.5t-409.5 184.5q-250 0 -409 -184.5t-159 -534.5q0 -349 159 -534 t409 -185q251 0 409.5 185t158.5 534z" />
<glyph unicode="P" horiz-adv-x="1812" d="M202 0v2048h768q236 0 396.5 -88t243 -241t82.5 -349q0 -197 -83 -350t-245 -240.5t-399 -87.5h-392v-692h-371zM573 997h342q207 0 303 105t96 268q0 164 -96 266t-305 102h-340v-741z" />
<glyph unicode="Q" horiz-adv-x="2184" d="M2032 1024q0 -278 -89 -489.5t-244 -346.5l284 -364h-360l-169 215q-168 -67 -363 -67q-269 0 -482 125.5t-336 361t-123 565.5q0 331 123 566.5t336 360.5t482 125t481.5 -125t336 -360.5t123.5 -566.5zM965 688h336l174 -226q87 91 135.5 232t48.5 330 q0 350 -158.5 534.5t-409.5 184.5q-250 0 -409 -184.5t-159 -534.5q0 -349 159 -534t409 -185q79 0 151 19z" />
<glyph unicode="R" horiz-adv-x="1832" d="M202 0v2048h768q353 0 537.5 -181t184.5 -474q0 -209 -94 -359t-274 -222l443 -812h-414l-402 750h-378v-750h-371zM573 1058h342q206 0 302.5 86t96.5 249q0 164 -96.5 254.5t-304.5 90.5h-340v-680z" />
<glyph unicode="S" horiz-adv-x="1828" d="M1315 1485q-14 131 -117 204t-269 73q-174 0 -272 -75.5t-99 -191.5q-1 -85 51 -140.5t132.5 -88.5t164.5 -53l192 -48q154 -36 291.5 -106.5t224 -188t86.5 -295.5q-1 -271 -205 -438.5t-572 -167.5q-358 0 -571 165.5t-224 470.5h365q11 -161 132 -240t295 -79 q182 0 295 80.5t114 211.5q-1 119 -101.5 180.5t-266.5 103.5l-233 60q-253 65 -399.5 197.5t-146.5 352.5q0 181 98 317t268.5 211.5t385.5 75.5q218 0 383 -75.5t258.5 -209t96.5 -306.5h-357z" />
<glyph unicode="T" horiz-adv-x="1858" d="M112 1737v311h1634v-311h-633v-1737h-368v1737h-633z" />
<glyph unicode="U" horiz-adv-x="2066" d="M1494 2048h370v-1354q0 -232 -109 -394t-297 -246.5t-425 -84.5t-425 84.5t-297 246.5t-109 394v1354h371v-1345q0 -126 61.5 -215.5t166 -137t232.5 -47.5q129 0 233.5 47.5t166 137t61.5 215.5v1345z" />
<glyph unicode="V" horiz-adv-x="2038" d="M476 2048l533 -1612h21l532 1612h408l-722 -2048h-458l-721 2048h407z" />
<glyph unicode="W" horiz-adv-x="2835" d="M633 0l-578 2048h399l369 -1505h19l394 1505h363l395 -1506h18l369 1506h399l-578 -2048h-366l-410 1437h-16l-411 -1437h-366z" />
<glyph unicode="X" horiz-adv-x="1944" d="M512 2048l451 -750h16l453 750h423l-631 -1024l641 -1024h-430l-456 745h-16l-456 -745h-428l647 1024l-639 1024h425z" />
<glyph unicode="Y" horiz-adv-x="1984" d="M62 2048h419l501 -906h20l501 906h419l-745 -1284v-764h-370v764z" />
<glyph unicode="Z" horiz-adv-x="1838" d="M164 0v231l1050 1506h-1056v311h1516v-231l-1049 -1506h1055v-311h-1516z" />
<glyph unicode="[" horiz-adv-x="1108" d="M310 -435v2541h723v-278h-375v-1986h375v-277h-723z" />
<glyph unicode="\" horiz-adv-x="1136" d="M99 2048h327l607 -2356h-327z" />
<glyph unicode="]" horiz-adv-x="1108" d="M798 2105v-2541h-723v278h375v1986h-375v277h723z" />
<glyph unicode="^" horiz-adv-x="1355" d="M99 1120l419 877h320l418 -877h-294l-277 615h-15l-275 -615h-296z" />
<glyph unicode="_" horiz-adv-x="1318" d="M1321 0v-289h-1323v289h1323z" />
<glyph unicode="`" horiz-adv-x="1400" d="M989 1738h-271l-307 457h355z" />
<glyph unicode="a" horiz-adv-x="1618" d="M628 -31q-220 0 -367 118t-147 344q0 173 83.5 268.5t217 139t282.5 59.5q203 22 291.5 41t88.5 97v6q0 113 -67 175t-193 62q-133 0 -210.5 -58t-104.5 -137l-338 48q60 210 234.5 317t416.5 107q110 0 220 -26t201.5 -86t147 -162t55.5 -254v-1028h-348v211h-12 q-49 -97 -159.5 -169.5t-291.5 -72.5zM722 235q164 0 260 94t96 222v181q-23 -19 -84.5 -33.5t-130.5 -24.5t-117 -17q-121 -17 -202 -66.5t-81 -153.5q0 -100 73 -151t186 -51z" />
<glyph unicode="b" horiz-adv-x="1775" d="M202 0v2048h362v-766h15q28 56 78.5 119.5t138 109t222.5 45.5q178 0 321.5 -91t228 -267t84.5 -432q0 -253 -83 -430t-226 -270t-324 -93q-132 0 -219 44t-139.5 106.5t-81.5 118.5h-21v-242h-356zM557 768q0 -223 94 -360.5t267 -137.5q179 0 272 141t93 357 q0 215 -92 353t-273 138q-175 0 -268 -133.5t-93 -357.5z" />
<glyph unicode="c" horiz-adv-x="1626" d="M856 -30q-229 0 -394 101t-253.5 280t-88.5 411q0 235 90 413.5t254.5 279.5t389.5 101q188 0 332 -68.5t230 -192.5t98 -291h-346q-21 111 -99.5 185.5t-209.5 74.5q-167 0 -269.5 -131.5t-102.5 -364.5q0 -235 101.5 -369t270.5 -134q119 0 202.5 68t106.5 192h346 q-13 -163 -96 -288t-226 -196t-336 -71z" />
<glyph unicode="d" horiz-adv-x="1775" d="M756 -27q-181 0 -324 93t-226 270t-83 430q0 256 84.5 432t228.5 267t321 91q136 0 222.5 -45.5t138 -109t78.5 -119.5h15v766h363v-2048h-356v242h-22q-28 -56 -81 -118.5t-140 -106.5t-219 -44zM857 270q173 0 267 137.5t94 360.5q0 224 -93 357.5t-268 133.5 q-181 0 -273 -138t-92 -353q0 -216 93 -357t272 -141z" />
<glyph unicode="e" horiz-adv-x="1669" d="M866 -30q-231 0 -398.5 97t-257.5 274t-90 418q0 237 90 416.5t253.5 280t383.5 100.5q189 0 349 -81.5t256.5 -253t96.5 -441.5v-111h-1070q3 -197 109.5 -307t282.5 -110q117 0 202.5 50.5t122.5 147.5l338 -38q-48 -200 -223.5 -321t-444.5 -121zM480 913h722 q-1 157 -97.5 259t-252.5 102q-162 0 -263 -107t-109 -254z" />
<glyph unicode="f" horiz-adv-x="1072" d="M974 1536v-280h-319v-1256h-362v1256h-227v280h227v145q0 155 64.5 258t173.5 154t242 51q94 0 167 -15t108 -27l-73 -280q-22 7 -57 14.5t-78 7.5q-101 0 -143 -48.5t-42 -138.5v-121h319z" />
<glyph unicode="g" horiz-adv-x="1761" d="M854 -602q-293 0 -460.5 112.5t-217.5 269.5l326 79q33 -63 114 -125t244 -62q155 0 255.5 74t100.5 239v291h-18q-28 -56 -81.5 -115t-141 -99t-219.5 -40q-177 0 -320.5 83.5t-228 250.5t-84.5 417q0 253 84.5 427.5t228.5 265t321 90.5q136 0 223.5 -45.5t139 -109 t78.5 -119.5h20v254h357v-1561q0 -193 -94 -321.5t-256.5 -192t-370.5 -63.5zM857 306q173 0 267 124.5t94 344.5q0 218 -93 351t-268 133q-181 0 -273 -137.5t-92 -346.5q0 -212 93 -340.5t272 -128.5z" />
<glyph unicode="h" horiz-adv-x="1726" d="M548 900v-900h-362v2048h354v-773h18q53 131 166.5 206t290.5 75q239 0 384 -150t145 -428v-978h-362v922q0 155 -79.5 241.5t-222.5 86.5q-145 0 -238.5 -91.5t-93.5 -258.5z" />
<glyph unicode="i" horiz-adv-x="734" d="M186 0v1536h362v-1536h-362zM368 1754q-87 0 -148.5 57.5t-61.5 138.5q0 82 61.5 139.5t148.5 57.5q86 0 147.5 -57.5t61.5 -139.5q0 -81 -61.5 -138.5t-147.5 -57.5z" />
<glyph unicode="j" horiz-adv-x="734" d="M186 1536h362v-1621q0 -249 -140.5 -370.5t-398.5 -117.5q-16 1 -32.5 1t-36.5 1v295q15 -1 27 -1.5t25 -0.5q104 0 149 50.5t45 147.5v1616zM366 1754q-87 0 -148.5 57.5t-61.5 138.5q0 82 61.5 139.5t148.5 57.5q86 0 147.5 -57.5t61.5 -139.5q0 -81 -61.5 -138.5 t-147.5 -57.5z" />
<glyph unicode="k" horiz-adv-x="1602" d="M186 0v2048h362v-1129h25l552 617h423l-595 -663l630 -873h-433l-470 657l-132 -141v-516h-362z" />
<glyph unicode="l" horiz-adv-x="734" d="M548 2048v-2048h-362v2048h362z" />
<glyph unicode="m" horiz-adv-x="2528" d="M186 0v1536h346v-261h18q48 131 159 206t265 75q155 0 263 -75t152 -206h16q51 128 172.5 204.5t288.5 76.5q212 0 346 -134t134 -391v-1031h-363v975q0 143 -76 209.5t-186 66.5q-131 0 -204.5 -81.5t-73.5 -211.5v-958h-355v990q0 119 -71.5 190t-186.5 71 q-117 0 -199.5 -87.5t-82.5 -229.5v-934h-362z" />
<glyph unicode="n" horiz-adv-x="1717" d="M548 900v-900h-362v1536h346v-261h18q53 128 169.5 204.5t288.5 76.5q238 0 382.5 -151t143.5 -427v-978h-362v922q0 154 -79.5 241t-219.5 87q-143 0 -234 -91.5t-91 -258.5z" />
<glyph unicode="o" horiz-adv-x="1712" d="M856 -30q-225 0 -390 99t-255.5 277.5t-90.5 415.5q0 238 90.5 416.5t255.5 278t390 99.5t390.5 -99.5t255.5 -278t90 -416.5q0 -237 -90 -415.5t-255.5 -277.5t-390.5 -99zM858 260q123 0 204.5 67t122 181.5t40.5 254.5q0 141 -40.5 255.5t-122 182.5t-204.5 68 q-124 0 -206.5 -68t-123.5 -182.5t-41 -255.5q0 -140 41 -254.5t123.5 -181.5t206.5 -67z" />
<glyph unicode="p" horiz-adv-x="1759" d="M186 -576v2112h356v-254h21q28 56 78.5 119.5t138 109t222.5 45.5q178 0 321.5 -91t228 -267t84.5 -432q0 -253 -83 -430t-226 -270t-324 -93q-132 0 -219 44t-139.5 106.5t-81.5 118.5h-15v-818h-362zM541 768q0 -223 94 -360.5t267 -137.5q179 0 272 141t93 357 q0 215 -92 353t-273 138q-175 0 -268 -133.5t-93 -357.5z" />
<glyph unicode="q" horiz-adv-x="1759" d="M1573 -576v2112h-356v-254h-21q-28 56 -78.5 119.5t-138 109t-222.5 45.5q-178 0 -321.5 -91t-228 -267t-84.5 -432q0 -253 83 -430t226 -270t324 -93q132 0 219 44t139.5 106.5t81.5 118.5h15v-818h362zM1218 768q0 -223 -94 -360.5t-267 -137.5q-179 0 -272 141 t-93 357q0 215 92 353t273 138q175 0 268 -133.5t93 -357.5z" />
<glyph unicode="r" horiz-adv-x="1165" d="M186 0v1536h351v-256h16q42 134 144 206t235 72q62 0 114 -15t92 -41l-112 -300q-29 14 -64 23t-79 9q-142 0 -238.5 -92.5t-96.5 -238.5v-903h-362z" />
<glyph unicode="s" horiz-adv-x="1546" d="M1400 1130l-330 -36q-21 76 -89.5 134t-193.5 58q-113 0 -189.5 -49t-75.5 -127q-1 -67 49.5 -109.5t167.5 -68.5l262 -56q431 -94 432 -416q0 -145 -84 -255.5t-232 -172.5t-340 -62q-283 0 -454 119t-205 330l353 34q47 -210 305 -210q129 0 207.5 52.5t78.5 131.5 q0 129 -207 175l-262 55q-221 46 -327 155.5t-105 277.5q0 142 78 246.5t218 162t325 57.5q270 0 425.5 -115.5t192.5 -310.5z" />
<glyph unicode="t" horiz-adv-x="1070" d="M953 1536v-280h-303v-794q0 -109 48 -143.5t116 -34.5q34 0 62.5 5t43.5 9l61 -283q-29 -10 -82.5 -22t-130.5 -14q-204 -6 -342.5 100t-137.5 323v854h-218v280h218v368h362v-368h303z" />
<glyph unicode="u" horiz-adv-x="1713" d="M1165 646v890h362v-1536h-351v273h-16q-52 -129 -170.5 -211t-291.5 -82q-226 0 -369 150.5t-143 427.5v978h362v-922q0 -146 80 -232t210 -86q80 0 155 39t123.5 116.5t48.5 194.5z" />
<glyph unicode="v" horiz-adv-x="1622" d="M1558 1536l-547 -1536h-400l-547 1536h386l353 -1141h16l354 1141h385z" />
<glyph unicode="w" horiz-adv-x="2358" d="M503 0l-434 1536h369l270 -1080h14l276 1080h365l276 -1074h15l266 1074h370l-435 -1536h-377l-288 1038h-21l-288 -1038h-378z" />
<glyph unicode="x" horiz-adv-x="1584" d="M482 1536l310 -567l315 567h383l-463 -768l471 -768h-381l-325 553l-322 -553h-384l468 768l-456 768h384z" />
<glyph unicode="y" horiz-adv-x="1622" d="M398 -598q-79 0 -138 14t-90 27l84 290q119 -34 199.5 -12t131.5 149l36 98l-557 1568h384l354 -1160h16l355 1160h385l-620 -1736q-64 -181 -197 -289.5t-343 -108.5z" />
<glyph unicode="z" horiz-adv-x="1582" d="M166 0v230l792 993v13h-766v300h1209v-247l-754 -976v-13h780v-300h-1261z" />
<glyph unicode="{" horiz-adv-x="1108" d="M1033 -435q-200 0 -342 44t-217.5 163.5t-75.5 344.5v254q0 158 -67.5 227t-237.5 69v336q170 0 237.5 69.5t67.5 226.5v255q0 226 75.5 345t217.5 163t342 44v-278q-176 0 -233.5 -74t-57.5 -229v-328q0 -78 -26.5 -146t-98.5 -119t-207 -78v-38q135 -27 207 -78 t98.5 -118.5t26.5 -145.5v-328q0 -156 57.5 -230t233.5 -74v-277z" />
<glyph unicode="|" horiz-adv-x="1008" d="M672 2708v-3368h-336v3368h336z" />
<glyph unicode="}" horiz-adv-x="1108" d="M75 2105q200 0 342 -44t217.5 -163.5t75.5 -344.5v-254q0 -158 67.5 -227t237.5 -69v-336q-170 0 -237.5 -69.5t-67.5 -226.5v-255q0 -226 -75.5 -345t-217.5 -163t-342 -44v278q176 0 233.5 74t57.5 229v328q0 78 26.5 146t98.5 119t207 78v38q-135 27 -207 78 t-98.5 118.5t-26.5 145.5v328q0 156 -57.5 230t-233.5 74v277z" />
<glyph unicode="~" d="M206 571q-7 272 113.5 408.5t306.5 136.5q98 0 183 -40.5t194 -137.5q63 -55 104.5 -81.5t94.5 -26.5q75 0 122.5 58.5t45.5 177.5h289q8 -272 -114 -408t-306 -136q-100 0 -185.5 42t-192.5 135q-66 58 -105.5 83t-91.5 25q-73 0 -121.5 -54.5t-46.5 -181.5h-290z" />
<glyph unicode="&#xa1;" horiz-adv-x="870" d="M629 -518l-33 1446h-322l-32 -1446h387zM435 1552q-91 0 -156 -64.5t-64 -155.5q-1 -90 64 -154t156 -64q89 0 154 64t66 154q-1 91 -66 155.5t-154 64.5z" />
<glyph unicode="&#xa2;" horiz-adv-x="1626" d="M760 -256v231q-201 21 -344 126t-219.5 275t-76.5 386q0 218 77.5 388t221 275t341.5 126v229h178v-228q247 -23 403 -170t173 -378h-346q-18 93 -76 161.5t-154 90.5v-983q89 20 150 85t80 167h346q-18 -227 -170 -378t-406 -173v-230h-178zM760 278v973 q-125 -36 -199 -161.5t-74 -321.5q0 -199 73 -326.5t200 -163.5z" />
<glyph unicode="&#xa3;" horiz-adv-x="1853" d="M1638 0h-1444v311h113q50 7 75.5 51t34.5 104.5t7 115.5l-8 227h-229v303h219l-12 343q-7 203 77.5 341.5t231 209t322.5 70.5q203 0 348.5 -80.5t218 -215.5t54.5 -301l-347 29q10 137 -73 200t-192 63q-111 0 -195 -77t-83 -239l13 -343h461v-303h-450l8 -211 q3 -87 -16 -159t-67 -128h933v-311z" />
<glyph unicode="&#xa4;" horiz-adv-x="2114" d="M222 836q0 145 41.5 274t115.5 235l-199 201l181 188l201 -200q104 77 229.5 119.5t263.5 42.5q139 0 266 -44t231 -123l202 205l185 -188l-206 -205q74 -105 115.5 -233t41.5 -272q0 -137 -38 -261t-106 -227l193 -190l-185 -188l-182 185q-107 -86 -239 -134.5 t-278 -48.5q-145 0 -275.5 47t-236.5 132l-182 -181l-181 188l186 186q-68 104 -106 228.5t-38 263.5zM466 836q0 -171 78.5 -311t212.5 -223t298 -83q162 0 295.5 83t212.5 223t79 311q0 173 -79 313t-212.5 222t-295.5 82q-164 0 -298 -82t-212.5 -222t-78.5 -313z" />
<glyph unicode="&#xa5;" horiz-adv-x="1589" d="M428 2048l367 -857l366 857h388l-475 -1004h320v-225h-420v-171h420v-225h-420v-423h-368v423h-440v225h440v171h-440v225h348l-474 1004h388z" />
<glyph unicode="&#xa6;" horiz-adv-x="897" d="M285 565h327v-949h-327v949zM612 2048v-945h-327v945h327z" />
<glyph unicode="&#xa7;" horiz-adv-x="1630" d="M1360 1548h-326q0 95 -56.5 157.5t-173.5 62.5q-98 0 -158.5 -47t-59.5 -119q-1 -78 66.5 -136.5t131.5 -88.5l385 -195q39 -19 93.5 -54t106 -88.5t83 -130.5t25.5 -181q-5 -80 -47 -143t-100.5 -104.5t-113.5 -58.5l-3 -4q159 -139 161 -356q0 -154 -76.5 -260 t-204 -161t-283.5 -55q-176 0 -311 66t-210.5 186.5t-75.5 285.5h328q-1 -112 73.5 -172.5t198.5 -56.5q88 2 159.5 42t72.5 125q-1 90 -67.5 141.5t-127.5 83.5l-385 191q-54 26 -130.5 80.5t-132 146.5t-47.5 231q7 120 89 201t174 107v5q-72 70 -116 157t-44 196 q0 137 70 244t193 168.5t283 61.5q168 0 293 -68t194 -187.5t69 -272.5zM1170 714q5 63 -42 116t-128 91l-354 177q-58 29 -119.5 -17.5t-66.5 -130.5q-5 -67 43 -118.5t130 -90.5l346 -171q35 -18 78.5 -4t76.5 53t36 95z" />
<glyph unicode="&#xa8;" horiz-adv-x="1558" d="M480 1762q-79 0 -136.5 56t-57.5 132q0 80 57.5 134.5t136.5 54.5q81 0 136.5 -54.5t55.5 -134.5q0 -76 -55.5 -132t-136.5 -56zM1080 1762q-79 0 -136.5 56t-57.5 132q0 80 57.5 134.5t136.5 54.5q81 0 136.5 -54.5t55.5 -134.5q0 -76 -55.5 -132t-136.5 -56z" />
<glyph unicode="&#xa9;" horiz-adv-x="2374" d="M192 1004q0 218 78 404.5t215 327t317.5 218.5t384.5 78q206 0 386.5 -78t317.5 -218.5t214 -327t77 -404.5q0 -219 -77 -407t-214 -328t-317.5 -218.5t-386.5 -78.5q-204 0 -384.5 78.5t-317.5 218.5t-215 328t-78 407zM363 1004q0 -183 65 -339.5t178.5 -273.5 t262.5 -182t318 -65q171 0 321 65t263 182t176.5 273.5t63.5 339.5q0 182 -63.5 337.5t-176.5 272t-263 181.5t-321 65q-169 0 -318 -65t-262.5 -181.5t-178.5 -272t-65 -337.5zM1420 820h221q0 -216 -128 -324t-343 -108q-224 0 -357 147.5t-133 384.5v164q0 237 133 384.5 t357 147.5q215 0 343 -108t128 -324h-219q1 132 -63.5 190t-188.5 58q-134 0 -202.5 -97.5t-69.5 -250.5v-164q1 -153 69.5 -250.5t202.5 -97.5q124 0 187 56.5t63 191.5z" />
<glyph unicode="&#xaa;" horiz-adv-x="1336" d="M849 1065q-43 -46 -113 -79.5t-170 -33.5q-168 0 -258.5 85.5t-90.5 226.5q0 153 119 235.5t361 82.5h141v70q0 176 -163 176q-91 0 -142 -35t-51 -101l-243 18q0 140 119.5 231t316.5 91q184 0 296 -95.5t112 -284.5v-432q0 -61 7.5 -123.5t30.5 -126.5h-249 q-15 46 -23 95zM838 1422h-141q-121 0 -177 -46t-56 -106q0 -55 39 -87.5t124 -32.5q56 0 115 25.5t96 59.5v187z" />
<glyph unicode="&#xab;" horiz-adv-x="1682" d="M902 220h-326l-404 600v28l404 600h326l-380 -614zM1512 220h-326l-404 600v28l404 600h326l-380 -614z" />
<glyph unicode="&#xac;" horiz-adv-x="1595" d="M1386 1108v-592h-281v356h-890v236h1171z" />
<glyph unicode="&#xad;" horiz-adv-x="1312" d="M1117 1002v-298h-922v298h922z" />
<glyph unicode="&#xae;" horiz-adv-x="2374" d="M192 1004q0 218 78 404.5t215 327t317.5 218.5t384.5 78q206 0 386.5 -78t317.5 -218.5t214 -327t77 -404.5q0 -219 -77 -407t-214 -328t-317.5 -218.5t-386.5 -78.5q-204 0 -384.5 78.5t-317.5 218.5t-215 328t-78 407zM363 1004q0 -183 65 -339.5t178.5 -273.5 t262.5 -182t318 -65q171 0 321 65t263 182t176.5 273.5t63.5 339.5q0 182 -63.5 337.5t-176.5 272t-263 181.5t-321 65q-169 0 -318 -65t-262.5 -181.5t-178.5 -272t-65 -337.5zM1207 900h-219v-464h-213v1168h395q209 0 332 -90.5t123 -267.5q0 -159 -162 -244 q87 -42 122.5 -119t35.5 -175v-76q0 -113 24 -176v-20h-217q-15 33 -17.5 99.5t-2.5 96.5v76q0 96 -45 144t-156 48zM988 1084h194q92 0 163 40.5t71 119.5q0 99 -55 137.5t-191 38.5h-182v-336z" />
<glyph unicode="&#xaf;" horiz-adv-x="1482" d="M1222 2048v-221h-962v221h962z" />
<glyph unicode="&#xb0;" horiz-adv-x="1290" d="M645 1096q-133 0 -242 65t-174 174t-65 242t65 242t174 174t242 65t242 -65t174 -174t65 -242t-65 -242t-174 -174t-242 -65zM645 1352q93 0 159 65.5t66 159.5q0 93 -66 159t-159 66q-94 0 -159.5 -66t-65.5 -159q0 -94 65.5 -159.5t159.5 -65.5z" />
<glyph unicode="&#xb1;" d="M249 907v295h527v366h314v-366h527v-295h-527v-366h-314v366h-527zM249 83v301h1368v-301h-1368z" />
<glyph unicode="&#xb2;" horiz-adv-x="1190" d="M129 1024v199l481 399q90 76 141 133t51 129q0 78 -62 122t-152 44q-96 0 -154.5 -48.5t-58.5 -134.5h-265q0 185 135.5 293t346.5 108q215 0 344.5 -109.5t129.5 -270.5q0 -129 -80 -233t-253 -232l-206 -164v-9h561v-226h-959z" />
<glyph unicode="&#xb3;" horiz-adv-x="1234" d="M614 1008q-147 0 -262 46.5t-181.5 129.5t-69.5 192h282q5 -64 70 -101t161 -37q99 0 165.5 41.5t66.5 111.5q0 68 -69 112.5t-188 44.5h-127v205h127q99 0 162 41.5t63 108.5q0 65 -54.5 106t-141.5 41q-91 0 -156 -39.5t-68 -104.5h-265q2 108 67.5 189.5t176 127 t246.5 45.5q209 0 336.5 -100.5t127.5 -247.5q0 -108 -74 -174t-180 -82v-10q146 -16 225.5 -91.5t79.5 -190.5q0 -106 -67 -188t-184.5 -129t-268.5 -47z" />
<glyph unicode="&#xb4;" horiz-adv-x="1400" d="M411 1738l223 457h355l-307 -457h-271z" />
<glyph unicode="&#xb5;" horiz-adv-x="1835" d="M186 -563v2099h362v-890q0 -156 102 -253t268 -97t268 98t101 252v890h363v-1536h-352v222h-12q-51 -107 -150 -165t-218 -58q-120 0 -218.5 58t-150.5 165h-12v-785h-351z" />
<glyph unicode="&#xb6;" horiz-adv-x="1707" d="M1197 0v1756h-248v-996h-118q-222 0 -376 83.5t-233.5 229t-79.5 331.5q0 184 79.5 329.5t233.5 230t376 84.5h675v-2048h-309z" />
<glyph unicode="&#xb7;" horiz-adv-x="819" d="M416 776q-91 0 -156 64.5t-64 155.5q-1 90 64 154t156 64q89 0 154 -64t66 -154q-1 -91 -66 -155.5t-154 -64.5z" />
<glyph unicode="&#xb8;" horiz-adv-x="954" d="M381 8h196l-16 -85q94 -14 159.5 -72.5t65.5 -168.5q1 -142 -127 -228t-365 -86l-4 178q115 0 183 30.5t69 96.5q2 64 -47.5 93.5t-156.5 40.5z" />
<glyph unicode="&#xb9;" horiz-adv-x="878" d="M662 2252v-1228h-272v890h-12q-22 -29 -92.5 -58t-187.5 -28v220q90 1 156.5 35t103.5 81.5t40 87.5h264z" />
<glyph unicode="&#xba;" horiz-adv-x="1331" d="M180 1436v106q0 215 131.5 352.5t354.5 137.5q225 0 355 -137.5t130 -352.5v-106q0 -213 -128.5 -349.5t-352.5 -136.5q-227 0 -358.5 136.5t-131.5 349.5zM425 1542v-106q0 -123 61 -203.5t184 -80.5q119 0 177.5 80.5t58.5 203.5v106q0 120 -59 203t-181 83 q-120 0 -180.5 -83t-60.5 -203z" />
<glyph unicode="&#xbb;" horiz-adv-x="1688" d="M158 220l380 614l-380 614h326l404 -600v-28l-404 -600h-326zM774 220l380 614l-380 614h326l404 -600v-28l-404 -600h-326z" />
<glyph unicode="&#xbc;" horiz-adv-x="2498" d="M353 0l1408 2048h251l-1408 -2048h-251zM602 2048v-1088h-252v778h-12q-19 -27 -83.5 -51t-166.5 -23v203q122 -1 194 61.5t75 119.5h245zM1435 182v202l513 704h320v-700h157v-206h-157v-182h-243v182h-590zM2029 388v426h-9l-324 -419v-7h333z" />
<glyph unicode="&#xbd;" horiz-adv-x="2589" d="M353 0l1408 2048h251l-1408 -2048h-251zM602 2048v-1088h-252v778h-12q-19 -27 -83.5 -51t-166.5 -23v203q122 -1 194 61.5t75 119.5h245zM1629 0v184l438 349q79 64 124 113.5t45 110.5q0 68 -55.5 106.5t-136.5 38.5q-83 0 -136.5 -41.5t-53.5 -116.5h-243 q0 165 122.5 262.5t315.5 97.5q196 0 312.5 -99t116.5 -244q0 -115 -72 -207.5t-230 -203.5l-179 -132v-10h502v-208h-870z" />
<glyph unicode="&#xbe;" horiz-adv-x="2721" d="M576 0l1408 2048h251l-1408 -2048h-251zM1658 182v202l513 704h320v-700h157v-206h-157v-182h-243v182h-590zM2252 388v426h-9l-324 -419v-7h333zM556 944q-206 0 -335 95t-131 237h260q2 -55 61 -87.5t143 -32.5q90 0 148 36t58 94q0 59 -60.5 96t-166.5 37h-117v188 h117q87 0 143.5 36t56.5 93q0 56 -48.5 91t-126.5 35t-136.5 -33.5t-60.5 -88.5h-247q4 143 131 233.5t314 90.5q188 0 305.5 -89.5t117.5 -220.5q0 -91 -63.5 -151.5t-167.5 -74.5v-10q134 -14 204.5 -81.5t70.5 -167.5q0 -142 -133 -233.5t-337 -91.5z" />
<glyph unicode="&#xbf;" horiz-adv-x="1532" d="M1000 919v-26q-1 -180 -34.5 -287.5t-96 -173t-150.5 -120.5q-91 -57 -152.5 -132t-61.5 -180q0 -118 80.5 -188.5t195.5 -70.5q106 0 192.5 68.5t93.5 209.5h356q-5 -190 -92.5 -317.5t-232 -192t-319.5 -64.5q-191 0 -336.5 67t-227 190.5t-81.5 292.5q0 172 80.5 289 t218.5 200q122 75 177 162.5t57 246.5v26h333zM825 1543q91 0 156 -64.5t64 -155.5q1 -90 -64 -154t-156 -64q-89 0 -154 64t-66 154q1 91 66 155.5t154 64.5z" />
<glyph unicode="&#xc0;" horiz-adv-x="2038" d="M465 0h-396l721 2048h458l722 -2048h-396l-170 505h-770zM734 803h570l-277 825h-16zM1158 2250h-271l-307 457h355z" />
<glyph unicode="&#xc1;" horiz-adv-x="2038" d="M465 0h-396l721 2048h458l722 -2048h-396l-170 505h-770zM734 803h570l-277 825h-16zM881 2250l223 457h355l-307 -457h-271z" />
<glyph unicode="&#xc2;" horiz-adv-x="2038" d="M465 0h-396l721 2048h458l722 -2048h-396l-170 505h-770zM734 803h570l-277 825h-16zM816 2232l203 256l203 -256h317v14l-378 432h-283l-379 -432v-14h317z" />
<glyph unicode="&#xc3;" horiz-adv-x="2038" d="M465 0h-396l721 2048h458l722 -2048h-396l-170 505h-770zM734 803h570l-277 825h-16zM725 2250l-219 5q0 179 92.5 279.5t226.5 100.5q70 0 120.5 -25.5t94.5 -54.5q37 -24 73 -43t79 -19q57 0 90.5 43t34.5 110l215 -9q-1 -178 -93 -277t-226 -100q-80 0 -130.5 26 t-91.5 55q-33 24 -66.5 42.5t-78.5 18.5q-53 0 -87 -42t-34 -110z" />
<glyph unicode="&#xc4;" horiz-adv-x="2038" d="M465 0h-396l721 2048h458l722 -2048h-396l-170 505h-770zM734 803h570l-277 825h-16zM720 2274q-79 0 -136.5 56t-57.5 132q0 80 57.5 134.5t136.5 54.5q81 0 136.5 -54.5t55.5 -134.5q0 -76 -55.5 -132t-136.5 -56zM1320 2274q-79 0 -136.5 56t-57.5 132 q0 80 57.5 134.5t136.5 54.5q81 0 136.5 -54.5t55.5 -134.5q0 -76 -55.5 -132t-136.5 -56z" />
<glyph unicode="&#xc5;" horiz-adv-x="2038" d="M465 0h-396l721 2048h458l722 -2048h-396l-170 505h-770zM734 803h570l-277 825h-16zM1019 2166q-90 0 -164 42t-118.5 113t-44.5 156q0 86 44.5 156t118.5 112t164 42q91 0 165 -42t118 -112t44 -156q0 -85 -44 -156t-118 -113t-165 -42zM1019 2333q62 0 106 42t44 102 t-44 102t-106 42q-61 -1 -105 -42.5t-44 -101.5t43.5 -102.5t105.5 -41.5z" />
<glyph unicode="&#xc6;" horiz-adv-x="2863" d="M69 0l915 2048h1702v-311h-961v-556h892v-311h-892v-559h969v-311h-1340v505h-658l-219 -505h-408zM825 803h529v887h-145z" />
<glyph unicode="&#xc7;" horiz-adv-x="2094" d="M1955 1357h-374q-32 184 -166 285t-321 101q-251 0 -411 -186t-160 -533q0 -352 160.5 -535.5t409.5 -183.5q184 0 318.5 97.5t169.5 277.5l374 -2q-28 -196 -141 -356t-297.5 -255t-428.5 -95q-270 0 -482 125.5t-334 361t-122 565.5q0 331 123 566.5t335.5 360.5 t479.5 125q227 0 411.5 -85t304.5 -245.5t151 -388.5zM983 2h196l-16 -85q94 -14 159.5 -72.5t65.5 -168.5q1 -142 -127 -228t-365 -86l-4 178q115 0 183 30.5t69 96.5q2 64 -47.5 93.5t-156.5 40.5z" />
<glyph unicode="&#xc8;" horiz-adv-x="1711" d="M202 0v2048h1332v-311h-961v-556h892v-311h-892v-559h969v-311h-1340zM1007 2250h-271l-307 457h355z" />
<glyph unicode="&#xc9;" horiz-adv-x="1711" d="M202 0v2048h1332v-311h-961v-556h892v-311h-892v-559h969v-311h-1340zM730 2250l223 457h355l-307 -457h-271z" />
<glyph unicode="&#xca;" horiz-adv-x="1711" d="M202 0v2048h1332v-311h-961v-556h892v-311h-892v-559h969v-311h-1340zM666 2232l203 256l203 -256h317v14l-378 432h-283l-379 -432v-14h317z" />
<glyph unicode="&#xcb;" horiz-adv-x="1711" d="M202 0v2048h1332v-311h-961v-556h892v-311h-892v-559h969v-311h-1340zM570 2274q-79 0 -136.5 56t-57.5 132q0 80 57.5 134.5t136.5 54.5q81 0 136.5 -54.5t55.5 -134.5q0 -76 -55.5 -132t-136.5 -56zM1170 2274q-79 0 -136.5 56t-57.5 132q0 80 57.5 134.5t136.5 54.5 q81 0 136.5 -54.5t55.5 -134.5q0 -76 -55.5 -132t-136.5 -56z" />
<glyph unicode="&#xcc;" horiz-adv-x="774" d="M573 2048v-2048h-371v2048h371zM527 2250h-271l-307 457h355z" />
<glyph unicode="&#xcd;" horiz-adv-x="774" d="M573 2048v-2048h-371v2048h371zM249 2250l223 457h355l-307 -457h-271z" />
<glyph unicode="&#xce;" horiz-adv-x="774" d="M573 2048v-2048h-371v2048h371zM185 2232l203 256l203 -256h317v14l-378 432h-283l-379 -432v-14h317z" />
<glyph unicode="&#xcf;" horiz-adv-x="774" d="M573 2048v-2048h-371v2048h371zM89 2274q-79 0 -136.5 56t-57.5 132q0 80 57.5 134.5t136.5 54.5q81 0 136.5 -54.5t55.5 -134.5q0 -76 -55.5 -132t-136.5 -56zM689 2274q-79 0 -136.5 56t-57.5 132q0 80 57.5 134.5t136.5 54.5q81 0 136.5 -54.5t55.5 -134.5 q0 -76 -55.5 -132t-136.5 -56z" />
<glyph unicode="&#xd0;" horiz-adv-x="2040" d="M-93 958v229h958v-229h-958zM896 0h-694v2048h708q305 0 524.5 -122.5t337.5 -351.5t118 -548q0 -320 -118.5 -550t-341 -353t-534.5 -123zM573 321h305q644 0 644 705q0 701 -633 701h-316v-1406z" />
<glyph unicode="&#xd1;" horiz-adv-x="2086" d="M1885 2048v-2048h-330l-965 1395h-17v-1395h-371v2048h332l964 -1396h18v1396h369zM750 2235l-219 5q0 179 92.5 279.5t226.5 100.5q70 0 120.5 -25.5t94.5 -54.5q37 -24 73 -43t79 -19q57 0 90.5 43t34.5 110l215 -9q-1 -178 -93 -277t-226 -100q-80 0 -130.5 26 t-91.5 55q-33 24 -66.5 42.5t-78.5 18.5q-53 0 -87 -42t-34 -110z" />
<glyph unicode="&#xd2;" horiz-adv-x="2182" d="M2032 1024q0 -331 -123.5 -566.5t-336 -360.5t-481.5 -125t-482 125.5t-336 361t-123 565.5q0 331 123 566.5t336 360.5t482 125t481.5 -125t336 -360.5t123.5 -566.5zM1659 1024q0 350 -158.5 534.5t-409.5 184.5q-250 0 -409 -184.5t-159 -534.5q0 -349 159 -534 t409 -185q251 0 409.5 185t158.5 534zM1230 2250h-271l-307 457h355z" />
<glyph unicode="&#xd3;" horiz-adv-x="2182" d="M2032 1024q0 -331 -123.5 -566.5t-336 -360.5t-481.5 -125t-482 125.5t-336 361t-123 565.5q0 331 123 566.5t336 360.5t482 125t481.5 -125t336 -360.5t123.5 -566.5zM1659 1024q0 350 -158.5 534.5t-409.5 184.5q-250 0 -409 -184.5t-159 -534.5q0 -349 159 -534 t409 -185q251 0 409.5 185t158.5 534zM953 2250l223 457h355l-307 -457h-271z" />
<glyph unicode="&#xd4;" horiz-adv-x="2182" d="M2032 1024q0 -331 -123.5 -566.5t-336 -360.5t-481.5 -125t-482 125.5t-336 361t-123 565.5q0 331 123 566.5t336 360.5t482 125t481.5 -125t336 -360.5t123.5 -566.5zM1659 1024q0 350 -158.5 534.5t-409.5 184.5q-250 0 -409 -184.5t-159 -534.5q0 -349 159 -534 t409 -185q251 0 409.5 185t158.5 534zM888 2232l203 256l203 -256h317v14l-378 432h-283l-379 -432v-14h317z" />
<glyph unicode="&#xd5;" horiz-adv-x="2182" d="M2032 1024q0 -331 -123.5 -566.5t-336 -360.5t-481.5 -125t-482 125.5t-336 361t-123 565.5q0 331 123 566.5t336 360.5t482 125t481.5 -125t336 -360.5t123.5 -566.5zM1659 1024q0 350 -158.5 534.5t-409.5 184.5q-250 0 -409 -184.5t-159 -534.5q0 -349 159 -534 t409 -185q251 0 409.5 185t158.5 534zM797 2250l-219 5q0 179 92.5 279.5t226.5 100.5q70 0 120.5 -25.5t94.5 -54.5q37 -24 73 -43t79 -19q57 0 90.5 43t34.5 110l215 -9q-1 -178 -93 -277t-226 -100q-80 0 -130.5 26t-91.5 55q-33 24 -66.5 42.5t-78.5 18.5q-53 0 -87 -42 t-34 -110z" />
<glyph unicode="&#xd6;" horiz-adv-x="2182" d="M2032 1024q0 -331 -123.5 -566.5t-336 -360.5t-481.5 -125t-482 125.5t-336 361t-123 565.5q0 331 123 566.5t336 360.5t482 125t481.5 -125t336 -360.5t123.5 -566.5zM1659 1024q0 350 -158.5 534.5t-409.5 184.5q-250 0 -409 -184.5t-159 -534.5q0 -349 159 -534 t409 -185q251 0 409.5 185t158.5 534zM792 2274q-79 0 -136.5 56t-57.5 132q0 80 57.5 134.5t136.5 54.5q81 0 136.5 -54.5t55.5 -134.5q0 -76 -55.5 -132t-136.5 -56zM1392 2274q-79 0 -136.5 56t-57.5 132q0 80 57.5 134.5t136.5 54.5q81 0 136.5 -54.5t55.5 -134.5 q0 -76 -55.5 -132t-136.5 -56z" />
<glyph unicode="&#xd7;" d="M1406 114l-473 473l-474 -473l-225 225l473 473l-473 473l225 227l474 -474l473 474l226 -227l-473 -473l473 -473z" />
<glyph unicode="&#xd8;" horiz-adv-x="2182" d="M453 -94l-181 124l150 217q-128 135 -200 331.5t-72 445.5q0 331 123 566.5t336 360.5t482 125q280 0 498 -135l136 197l181 -124l-146 -212q127 -136 199.5 -332t72.5 -446q0 -331 -123.5 -566.5t-336 -360.5t-481.5 -125q-281 0 -499 136zM1659 1024q0 146 -29.5 263.5 t-82.5 205.5l-759 -1100q130 -88 303 -88q251 0 409.5 185t158.5 534zM635 556l758 1100q-129 87 -302 87q-250 0 -409 -184.5t-159 -534.5q0 -145 29 -262.5t83 -205.5z" />
<glyph unicode="&#xd9;" horiz-adv-x="2066" d="M1494 2048h370v-1354q0 -232 -109 -394t-297 -246.5t-425 -84.5t-425 84.5t-297 246.5t-109 394v1354h371v-1345q0 -126 61.5 -215.5t166 -137t232.5 -47.5q129 0 233.5 47.5t166 137t61.5 215.5v1345zM1171 2250h-271l-307 457h355z" />
<glyph unicode="&#xda;" horiz-adv-x="2066" d="M1494 2048h370v-1354q0 -232 -109 -394t-297 -246.5t-425 -84.5t-425 84.5t-297 246.5t-109 394v1354h371v-1345q0 -126 61.5 -215.5t166 -137t232.5 -47.5q129 0 233.5 47.5t166 137t61.5 215.5v1345zM894 2250l223 457h355l-307 -457h-271z" />
<glyph unicode="&#xdb;" horiz-adv-x="2066" d="M1494 2048h370v-1354q0 -232 -109 -394t-297 -246.5t-425 -84.5t-425 84.5t-297 246.5t-109 394v1354h371v-1345q0 -126 61.5 -215.5t166 -137t232.5 -47.5q129 0 233.5 47.5t166 137t61.5 215.5v1345zM830 2232l203 256l203 -256h317v14l-378 432h-283l-379 -432v-14 h317z" />
<glyph unicode="&#xdc;" horiz-adv-x="2066" d="M1494 2048h370v-1354q0 -232 -109 -394t-297 -246.5t-425 -84.5t-425 84.5t-297 246.5t-109 394v1354h371v-1345q0 -126 61.5 -215.5t166 -137t232.5 -47.5q129 0 233.5 47.5t166 137t61.5 215.5v1345zM734 2274q-79 0 -136.5 56t-57.5 132q0 80 57.5 134.5t136.5 54.5 q81 0 136.5 -54.5t55.5 -134.5q0 -76 -55.5 -132t-136.5 -56zM1334 2274q-79 0 -136.5 56t-57.5 132q0 80 57.5 134.5t136.5 54.5q81 0 136.5 -54.5t55.5 -134.5q0 -76 -55.5 -132t-136.5 -56z" />
<glyph unicode="&#xdd;" horiz-adv-x="1984" d="M62 2048h419l501 -906h20l501 906h419l-745 -1284v-764h-370v764zM853 2250l223 457h355l-307 -457h-271z" />
<glyph unicode="&#xde;" horiz-adv-x="1851" d="M194 2048h371v-392h332q237 0 401 -81t249 -220t85 -313t-85 -312.5t-249 -219t-401 -80.5h-332v-430h-371v2048zM565 726h332q194 0 287.5 88t93.5 224q0 138 -93.5 229.5t-287.5 91.5h-332v-633z" />
<glyph unicode="&#xdf;" horiz-adv-x="1818" d="M202 0v1513q0 263 183 413t484 150q190 0 345 -63t247.5 -184.5t92.5 -298.5q0 -164 -82 -278.5t-222 -157.5v-22q198 -16 318 -154.5t119 -353.5q0 -173 -80.5 -300t-223.5 -195.5t-333 -68.5h-255v305h211q144 0 230 79.5t86 206.5q-1 134 -96 216.5t-257 82.5h-166 v296h114q123 0 195.5 87.5t73.5 203.5q0 123 -82 205.5t-225 82.5q-139 0 -227 -80.5t-88 -213.5v-1471h-362z" />
<glyph unicode="&#xe0;" horiz-adv-x="1618" d="M628 -31q-220 0 -367 118t-147 344q0 173 83.5 268.5t217 139t282.5 59.5q203 22 291.5 41t88.5 97v6q0 113 -67 175t-193 62q-133 0 -210.5 -58t-104.5 -137l-338 48q60 210 234.5 317t416.5 107q110 0 220 -26t201.5 -86t147 -162t55.5 -254v-1028h-348v211h-12 q-49 -97 -159.5 -169.5t-291.5 -72.5zM722 235q164 0 260 94t96 222v181q-23 -19 -84.5 -33.5t-130.5 -24.5t-117 -17q-121 -17 -202 -66.5t-81 -153.5q0 -100 73 -151t186 -51zM970 1738h-271l-307 457h355z" />
<glyph unicode="&#xe1;" horiz-adv-x="1618" d="M628 -31q-220 0 -367 118t-147 344q0 173 83.5 268.5t217 139t282.5 59.5q203 22 291.5 41t88.5 97v6q0 113 -67 175t-193 62q-133 0 -210.5 -58t-104.5 -137l-338 48q60 210 234.5 317t416.5 107q110 0 220 -26t201.5 -86t147 -162t55.5 -254v-1028h-348v211h-12 q-49 -97 -159.5 -169.5t-291.5 -72.5zM722 235q164 0 260 94t96 222v181q-23 -19 -84.5 -33.5t-130.5 -24.5t-117 -17q-121 -17 -202 -66.5t-81 -153.5q0 -100 73 -151t186 -51zM693 1738l223 457h355l-307 -457h-271z" />
<glyph unicode="&#xe2;" horiz-adv-x="1618" d="M628 -31q-220 0 -367 118t-147 344q0 173 83.5 268.5t217 139t282.5 59.5q203 22 291.5 41t88.5 97v6q0 113 -67 175t-193 62q-133 0 -210.5 -58t-104.5 -137l-338 48q60 210 234.5 317t416.5 107q110 0 220 -26t201.5 -86t147 -162t55.5 -254v-1028h-348v211h-12 q-49 -97 -159.5 -169.5t-291.5 -72.5zM722 235q164 0 260 94t96 222v181q-23 -19 -84.5 -33.5t-130.5 -24.5t-117 -17q-121 -17 -202 -66.5t-81 -153.5q0 -100 73 -151t186 -51zM628 1720l203 256l203 -256h317v14l-378 432h-283l-379 -432v-14h317z" />
<glyph unicode="&#xe3;" horiz-adv-x="1618" d="M628 -31q-220 0 -367 118t-147 344q0 173 83.5 268.5t217 139t282.5 59.5q203 22 291.5 41t88.5 97v6q0 113 -67 175t-193 62q-133 0 -210.5 -58t-104.5 -137l-338 48q60 210 234.5 317t416.5 107q110 0 220 -26t201.5 -86t147 -162t55.5 -254v-1028h-348v211h-12 q-49 -97 -159.5 -169.5t-291.5 -72.5zM722 235q164 0 260 94t96 222v181q-23 -19 -84.5 -33.5t-130.5 -24.5t-117 -17q-121 -17 -202 -66.5t-81 -153.5q0 -100 73 -151t186 -51zM537 1723l-219 5q0 179 92.5 279.5t226.5 100.5q70 0 120.5 -25.5t94.5 -54.5q37 -24 73 -43 t79 -19q57 0 90.5 43t34.5 110l215 -9q-1 -178 -93 -277t-226 -100q-80 0 -130.5 26t-91.5 55q-33 24 -66.5 42.5t-78.5 18.5q-53 0 -87 -42t-34 -110z" />
<glyph unicode="&#xe4;" horiz-adv-x="1618" d="M628 -31q-220 0 -367 118t-147 344q0 173 83.5 268.5t217 139t282.5 59.5q203 22 291.5 41t88.5 97v6q0 113 -67 175t-193 62q-133 0 -210.5 -58t-104.5 -137l-338 48q60 210 234.5 317t416.5 107q110 0 220 -26t201.5 -86t147 -162t55.5 -254v-1028h-348v211h-12 q-49 -97 -159.5 -169.5t-291.5 -72.5zM722 235q164 0 260 94t96 222v181q-23 -19 -84.5 -33.5t-130.5 -24.5t-117 -17q-121 -17 -202 -66.5t-81 -153.5q0 -100 73 -151t186 -51zM532 1762q-79 0 -136.5 56t-57.5 132q0 80 57.5 134.5t136.5 54.5q81 0 136.5 -54.5 t55.5 -134.5q0 -76 -55.5 -132t-136.5 -56zM1132 1762q-79 0 -136.5 56t-57.5 132q0 80 57.5 134.5t136.5 54.5q81 0 136.5 -54.5t55.5 -134.5q0 -76 -55.5 -132t-136.5 -56z" />
<glyph unicode="&#xe5;" horiz-adv-x="1618" d="M628 -31q-220 0 -367 118t-147 344q0 173 83.5 268.5t217 139t282.5 59.5q203 22 291.5 41t88.5 97v6q0 113 -67 175t-193 62q-133 0 -210.5 -58t-104.5 -137l-338 48q60 210 234.5 317t416.5 107q110 0 220 -26t201.5 -86t147 -162t55.5 -254v-1028h-348v211h-12 q-49 -97 -159.5 -169.5t-291.5 -72.5zM722 235q164 0 260 94t96 222v181q-23 -19 -84.5 -33.5t-130.5 -24.5t-117 -17q-121 -17 -202 -66.5t-81 -153.5q0 -100 73 -151t186 -51zM831 1703q-97 0 -176 44.5t-126 120t-47 167.5q0 93 47 170t126 123t176 46q98 0 176.5 -46 t124.5 -123t46 -170q0 -92 -46 -167.5t-124.5 -120t-176.5 -44.5zM831 1873q73 0 120.5 49t47.5 113q0 65 -47.5 116.5t-120.5 50.5q-72 0 -120 -51t-48 -116q0 -64 48 -113.5t120 -48.5z" />
<glyph unicode="&#xe6;" horiz-adv-x="2583" d="M1798 -30q-195 0 -343.5 77t-222.5 214h-11q-37 -86 -123.5 -152t-204 -103t-249.5 -37q-232 0 -381 118t-149 344q0 173 84 268.5t217.5 139t281.5 59.5q204 22 292 42t88 96v6q0 113 -67 175t-193 62q-132 0 -210 -57.5t-105 -137.5l-338 48q60 210 234.5 317 t421.5 107q80 0 167.5 -18t164.5 -64.5t127 -132.5q175 215 483 215q189 0 348.5 -81.5t256 -253t96.5 -441.5v-111h-1069q3 -197 110 -307t282 -110q117 0 202.5 50.5t121.5 147.5l339 -38q-48 -200 -223 -321t-428 -121zM722 235q164 0 260 94t96 222v181 q-23 -19 -84.5 -33.5t-130.5 -24.5t-117 -17q-121 -17 -202 -66.5t-81 -153.5q0 -100 73 -151t186 -51zM1395 913h721q-1 157 -97.5 259t-252.5 102q-162 0 -262.5 -107.5t-108.5 -253.5z" />
<glyph unicode="&#xe7;" horiz-adv-x="1626" d="M856 -30q-229 0 -394 101t-253.5 280t-88.5 411q0 235 90 413.5t254.5 279.5t389.5 101q188 0 332 -68.5t230 -192.5t98 -291h-346q-21 111 -99.5 185.5t-209.5 74.5q-167 0 -269.5 -131.5t-102.5 -364.5q0 -235 101.5 -369t270.5 -134q119 0 202.5 68t106.5 192h346 q-13 -163 -96 -288t-226 -196t-336 -71zM752 8h196l-16 -85q94 -14 159.5 -72.5t65.5 -168.5q1 -142 -127 -228t-365 -86l-4 178q115 0 183 30.5t69 96.5q2 64 -47.5 93.5t-156.5 40.5z" />
<glyph unicode="&#xe8;" horiz-adv-x="1669" d="M866 -30q-231 0 -398.5 97t-257.5 274t-90 418q0 237 90 416.5t253.5 280t383.5 100.5q189 0 349 -81.5t256.5 -253t96.5 -441.5v-111h-1070q3 -197 109.5 -307t282.5 -110q117 0 202.5 50.5t122.5 147.5l338 -38q-48 -200 -223.5 -321t-444.5 -121zM480 913h722 q-1 157 -97.5 259t-252.5 102q-162 0 -263 -107t-109 -254zM975 1738h-271l-307 457h355z" />
<glyph unicode="&#xe9;" horiz-adv-x="1669" d="M866 -30q-231 0 -398.5 97t-257.5 274t-90 418q0 237 90 416.5t253.5 280t383.5 100.5q189 0 349 -81.5t256.5 -253t96.5 -441.5v-111h-1070q3 -197 109.5 -307t282.5 -110q117 0 202.5 50.5t122.5 147.5l338 -38q-48 -200 -223.5 -321t-444.5 -121zM480 913h722 q-1 157 -97.5 259t-252.5 102q-162 0 -263 -107t-109 -254zM698 1738l223 457h355l-307 -457h-271z" />
<glyph unicode="&#xea;" horiz-adv-x="1669" d="M866 -30q-231 0 -398.5 97t-257.5 274t-90 418q0 237 90 416.5t253.5 280t383.5 100.5q189 0 349 -81.5t256.5 -253t96.5 -441.5v-111h-1070q3 -197 109.5 -307t282.5 -110q117 0 202.5 50.5t122.5 147.5l338 -38q-48 -200 -223.5 -321t-444.5 -121zM480 913h722 q-1 157 -97.5 259t-252.5 102q-162 0 -263 -107t-109 -254zM634 1720l203 256l203 -256h317v14l-378 432h-283l-379 -432v-14h317z" />
<glyph unicode="&#xeb;" horiz-adv-x="1669" d="M866 -30q-231 0 -398.5 97t-257.5 274t-90 418q0 237 90 416.5t253.5 280t383.5 100.5q189 0 349 -81.5t256.5 -253t96.5 -441.5v-111h-1070q3 -197 109.5 -307t282.5 -110q117 0 202.5 50.5t122.5 147.5l338 -38q-48 -200 -223.5 -321t-444.5 -121zM480 913h722 q-1 157 -97.5 259t-252.5 102q-162 0 -263 -107t-109 -254zM538 1762q-79 0 -136.5 56t-57.5 132q0 80 57.5 134.5t136.5 54.5q81 0 136.5 -54.5t55.5 -134.5q0 -76 -55.5 -132t-136.5 -56zM1138 1762q-79 0 -136.5 56t-57.5 132q0 80 57.5 134.5t136.5 54.5 q81 0 136.5 -54.5t55.5 -134.5q0 -76 -55.5 -132t-136.5 -56z" />
<glyph unicode="&#xec;" horiz-adv-x="734" d="M186 0v1536h362v-1536h-362zM507 1738h-271l-307 457h355z" />
<glyph unicode="&#xed;" horiz-adv-x="734" d="M186 0v1536h362v-1536h-362zM229 1738l223 457h355l-307 -457h-271z" />
<glyph unicode="&#xee;" horiz-adv-x="734" d="M186 0v1536h362v-1536h-362zM165 1720l203 256l203 -256h317v14l-378 432h-283l-379 -432v-14h317z" />
<glyph unicode="&#xef;" horiz-adv-x="734" d="M186 0v1536h362v-1536h-362zM69 1762q-79 0 -136.5 56t-57.5 132q0 80 57.5 134.5t136.5 54.5q81 0 136.5 -54.5t55.5 -134.5q0 -76 -55.5 -132t-136.5 -56zM669 1762q-79 0 -136.5 56t-57.5 132q0 80 57.5 134.5t136.5 54.5q81 0 136.5 -54.5t55.5 -134.5 q0 -76 -55.5 -132t-136.5 -56z" />
<glyph unicode="&#xf0;" horiz-adv-x="1618" d="M1294 1902l-227 -114q184 -196 305.5 -456.5t121.5 -579.5q0 -248 -85.5 -423.5t-240 -268t-360.5 -92.5q-209 0 -363 95t-238 261t-84 380q0 212 76.5 369t200.5 249t266 107q131 10 235.5 -36.5t162.5 -124.5h20q-51 101 -117.5 197.5t-165.5 189.5l-352 -177l-100 193 l266 133q-102 71 -228 138l160 234q88 -45 177 -102.5t174 -127.5l296 148zM819 260q169 0 260 117t91 322q0 200 -88 327.5t-263 127.5q-166 0 -256 -119.5t-90 -328.5q0 -202 86.5 -324t259.5 -122z" />
<glyph unicode="&#xf1;" horiz-adv-x="1717" d="M548 900v-900h-362v1536h346v-261h18q53 128 169.5 204.5t288.5 76.5q238 0 382.5 -151t143.5 -427v-978h-362v922q0 154 -79.5 241t-219.5 87q-143 0 -234 -91.5t-91 -258.5zM565 1723l-219 5q0 179 92.5 279.5t226.5 100.5q70 0 120.5 -25.5t94.5 -54.5q37 -24 73 -43 t79 -19q57 0 90.5 43t34.5 110l215 -9q-1 -178 -93 -277t-226 -100q-80 0 -130.5 26t-91.5 55q-33 24 -66.5 42.5t-78.5 18.5q-53 0 -87 -42t-34 -110z" />
<glyph unicode="&#xf2;" horiz-adv-x="1712" d="M856 -30q-225 0 -390 99t-255.5 277.5t-90.5 415.5q0 238 90.5 416.5t255.5 278t390 99.5t390.5 -99.5t255.5 -278t90 -416.5q0 -237 -90 -415.5t-255.5 -277.5t-390.5 -99zM858 260q123 0 204.5 67t122 181.5t40.5 254.5q0 141 -40.5 255.5t-122 182.5t-204.5 68 q-124 0 -206.5 -68t-123.5 -182.5t-41 -255.5q0 -140 41 -254.5t123.5 -181.5t206.5 -67zM995 1738h-271l-307 457h355z" />
<glyph unicode="&#xf3;" horiz-adv-x="1712" d="M856 -30q-225 0 -390 99t-255.5 277.5t-90.5 415.5q0 238 90.5 416.5t255.5 278t390 99.5t390.5 -99.5t255.5 -278t90 -416.5q0 -237 -90 -415.5t-255.5 -277.5t-390.5 -99zM858 260q123 0 204.5 67t122 181.5t40.5 254.5q0 141 -40.5 255.5t-122 182.5t-204.5 68 q-124 0 -206.5 -68t-123.5 -182.5t-41 -255.5q0 -140 41 -254.5t123.5 -181.5t206.5 -67zM717 1738l223 457h355l-307 -457h-271z" />
<glyph unicode="&#xf4;" horiz-adv-x="1712" d="M856 -30q-225 0 -390 99t-255.5 277.5t-90.5 415.5q0 238 90.5 416.5t255.5 278t390 99.5t390.5 -99.5t255.5 -278t90 -416.5q0 -237 -90 -415.5t-255.5 -277.5t-390.5 -99zM858 260q123 0 204.5 67t122 181.5t40.5 254.5q0 141 -40.5 255.5t-122 182.5t-204.5 68 q-124 0 -206.5 -68t-123.5 -182.5t-41 -255.5q0 -140 41 -254.5t123.5 -181.5t206.5 -67zM653 1720l203 256l203 -256h317v14l-378 432h-283l-379 -432v-14h317z" />
<glyph unicode="&#xf5;" horiz-adv-x="1666" d="M602 1723l-219 5q0 179 92.5 279.5t226.5 100.5q70 0 120.5 -25.5t94.5 -54.5q37 -24 73 -43t79 -19q57 0 90.5 43t34.5 110l215 -9q-1 -178 -93 -277t-226 -100q-80 0 -130.5 26t-91.5 55q-33 24 -66.5 42.5t-78.5 18.5q-53 0 -87 -42t-34 -110zM859 -30q-225 0 -390 99 t-255.5 277.5t-90.5 415.5q0 238 90.5 416.5t255.5 278t390 99.5t390.5 -99.5t255.5 -278t90 -416.5q0 -237 -90 -415.5t-255.5 -277.5t-390.5 -99zM861 260q123 0 204.5 67t122 181.5t40.5 254.5q0 141 -40.5 255.5t-122 182.5t-204.5 68q-124 0 -206.5 -68t-123.5 -182.5 t-41 -255.5q0 -140 41 -254.5t123.5 -181.5t206.5 -67z" />
<glyph unicode="&#xf6;" horiz-adv-x="1712" d="M856 -30q-225 0 -390 99t-255.5 277.5t-90.5 415.5q0 238 90.5 416.5t255.5 278t390 99.5t390.5 -99.5t255.5 -278t90 -416.5q0 -237 -90 -415.5t-255.5 -277.5t-390.5 -99zM858 260q123 0 204.5 67t122 181.5t40.5 254.5q0 141 -40.5 255.5t-122 182.5t-204.5 68 q-124 0 -206.5 -68t-123.5 -182.5t-41 -255.5q0 -140 41 -254.5t123.5 -181.5t206.5 -67zM557 1762q-79 0 -136.5 56t-57.5 132q0 80 57.5 134.5t136.5 54.5q81 0 136.5 -54.5t55.5 -134.5q0 -76 -55.5 -132t-136.5 -56zM1157 1762q-79 0 -136.5 56t-57.5 132 q0 80 57.5 134.5t136.5 54.5q81 0 136.5 -54.5t55.5 -134.5q0 -76 -55.5 -132t-136.5 -56z" />
<glyph unicode="&#xf7;" d="M1613 963v-301h-1360v301h1360zM933 1137q-92 0 -157 65t-65 156q0 90 65 154t157 64q90 0 153.5 -64t63.5 -154q0 -91 -63.5 -156t-153.5 -65zM933 50q-92 0 -157 64.5t-65 156.5q0 89 65 153.5t157 64.5q89 0 153 -64.5t64 -153.5q0 -92 -64 -156.5t-153 -64.5z" />
<glyph unicode="&#xf8;" horiz-adv-x="1715" d="M399 -94l-181 124l105 152q-98 104 -150.5 251t-52.5 327q0 238 90.5 416.5t255.5 278t390 99.5q199 0 356 -81l99 145l183 -124l-106 -154q98 -104 151 -251.5t53 -328.5q0 -237 -90 -415.5t-255.5 -277.5t-390.5 -99q-200 0 -358 82zM858 258q123 0 204.5 67t122 181.5 t40.5 254.5q0 156 -48 274l-501 -727q79 -50 182 -50zM534 489l501 729q-77 49 -177 49q-124 0 -206.5 -68t-123.5 -182.5t-41 -255.5q0 -155 47 -272z" />
<glyph unicode="&#xf9;" horiz-adv-x="1713" d="M1165 646v890h362v-1536h-351v273h-16q-52 -129 -170.5 -211t-291.5 -82q-226 0 -369 150.5t-143 427.5v978h362v-922q0 -146 80 -232t210 -86q80 0 155 39t123.5 116.5t48.5 194.5zM997 1738h-271l-307 457h355z" />
<glyph unicode="&#xfa;" horiz-adv-x="1713" d="M1165 646v890h362v-1536h-351v273h-16q-52 -129 -170.5 -211t-291.5 -82q-226 0 -369 150.5t-143 427.5v978h362v-922q0 -146 80 -232t210 -86q80 0 155 39t123.5 116.5t48.5 194.5zM720 1738l223 457h355l-307 -457h-271z" />
<glyph unicode="&#xfb;" horiz-adv-x="1713" d="M1165 646v890h362v-1536h-351v273h-16q-52 -129 -170.5 -211t-291.5 -82q-226 0 -369 150.5t-143 427.5v978h362v-922q0 -146 80 -232t210 -86q80 0 155 39t123.5 116.5t48.5 194.5zM655 1720l203 256l203 -256h317v14l-378 432h-283l-379 -432v-14h317z" />
<glyph unicode="&#xfc;" horiz-adv-x="1713" d="M1165 646v890h362v-1536h-351v273h-16q-52 -129 -170.5 -211t-291.5 -82q-226 0 -369 150.5t-143 427.5v978h362v-922q0 -146 80 -232t210 -86q80 0 155 39t123.5 116.5t48.5 194.5zM559 1762q-79 0 -136.5 56t-57.5 132q0 80 57.5 134.5t136.5 54.5q81 0 136.5 -54.5 t55.5 -134.5q0 -76 -55.5 -132t-136.5 -56zM1159 1762q-79 0 -136.5 56t-57.5 132q0 80 57.5 134.5t136.5 54.5q81 0 136.5 -54.5t55.5 -134.5q0 -76 -55.5 -132t-136.5 -56z" />
<glyph unicode="&#xfd;" horiz-adv-x="1622" d="M398 -598q-79 0 -138 14t-90 27l84 290q119 -34 199.5 -12t131.5 149l36 98l-557 1568h384l354 -1160h16l355 1160h385l-620 -1736q-64 -181 -197 -289.5t-343 -108.5zM671 1738l223 457h355l-307 -457h-271z" />
<glyph unicode="&#xfe;" horiz-adv-x="1722" d="M186 2048h362v-711h18q27 49 75.5 99.5t127.5 85t197 34.5q176 0 319.5 -91t229 -267t84.5 -432q1 -254 -82.5 -431t-227 -269.5t-323.5 -92.5q-171 0 -265 71t-135 147h-18v-767h-362v2624zM1251 768q1 219 -92.5 355t-281.5 136t-273 -139.5t-86 -351.5 q1 -141 38 -253.5t116 -178.5t205 -66q186 0 280.5 139t93.5 359z" />
<glyph unicode="&#xff;" horiz-adv-x="1622" d="M398 -598q-79 0 -138 14t-90 27l84 290q119 -34 199.5 -12t131.5 149l36 98l-557 1568h384l354 -1160h16l355 1160h385l-620 -1736q-64 -181 -197 -289.5t-343 -108.5zM510 1762q-79 0 -136.5 56t-57.5 132q0 80 57.5 134.5t136.5 54.5q81 0 136.5 -54.5t55.5 -134.5 q0 -76 -55.5 -132t-136.5 -56zM1110 1762q-79 0 -136.5 56t-57.5 132q0 80 57.5 134.5t136.5 54.5q81 0 136.5 -54.5t55.5 -134.5q0 -76 -55.5 -132t-136.5 -56z" />
<glyph unicode="&#x131;" horiz-adv-x="734" d="M186 0v1536h362v-1536h-362z" />
<glyph unicode="&#x152;" horiz-adv-x="2806" d="M1072 0q-268 0 -476 121t-327 350t-119 551q0 325 119 554.5t327 350.5t476 121h1556v-311h-961v-556h892v-311h-892v-559h969v-311h-1564zM1296 311v1426h-224q-244 0 -398 -181t-154 -534q0 -351 154 -531t398 -180h224z" />
<glyph unicode="&#x153;" horiz-adv-x="2762" d="M859 -30q-225 0 -390 99t-255.5 277.5t-90.5 415.5q0 238 90.5 416.5t255.5 278t390 99.5t390.5 -99.5t255.5 -278t90 -416.5q0 -237 -90 -415.5t-255.5 -277.5t-390.5 -99zM861 260q123 0 204.5 67t122 181.5t40.5 254.5q0 141 -40.5 255.5t-122 182.5t-204.5 68 q-124 0 -206.5 -68t-123.5 -182.5t-41 -255.5q0 -140 41 -254.5t123.5 -181.5t206.5 -67zM1988 -30q-231 0 -398.5 97t-257.5 274t-90 418q0 237 90 416.5t253.5 280t383.5 100.5q189 0 349 -81.5t256.5 -253t96.5 -441.5v-111h-1070q3 -197 109.5 -307t282.5 -110 q117 0 202.5 50.5t122.5 147.5l338 -38q-48 -200 -223.5 -321t-444.5 -121zM1602 913h722q-1 157 -97.5 259t-252.5 102q-162 0 -263 -107t-109 -254z" />
<glyph unicode="&#x178;" horiz-adv-x="1984" d="M62 2048h419l501 -906h20l501 906h419l-745 -1284v-764h-370v764zM693 2274q-79 0 -136.5 56t-57.5 132q0 80 57.5 134.5t136.5 54.5q81 0 136.5 -54.5t55.5 -134.5q0 -76 -55.5 -132t-136.5 -56zM1293 2274q-79 0 -136.5 56t-57.5 132q0 80 57.5 134.5t136.5 54.5 q81 0 136.5 -54.5t55.5 -134.5q0 -76 -55.5 -132t-136.5 -56z" />
<glyph unicode="&#x189;" horiz-adv-x="2040" d="M-93 958v229h958v-229h-958zM896 0h-694v2048h708q305 0 524.5 -122.5t337.5 -351.5t118 -548q0 -320 -118.5 -550t-341 -353t-534.5 -123zM573 321h305q644 0 644 705q0 701 -633 701h-316v-1406z" />
<glyph unicode="&#x237;" horiz-adv-x="734" d="M186 1536h362v-1621q0 -249 -140.5 -370.5t-398.5 -117.5q-16 1 -32.5 1t-36.5 1v295q15 -1 27 -1.5t25 -0.5q104 0 149 50.5t45 147.5v1616z" />
<glyph unicode="&#x2c6;" horiz-adv-x="1478" d="M536 1720l203 256l203 -256h317v14l-378 432h-283l-379 -432v-14h317z" />
<glyph unicode="&#x2c7;" horiz-adv-x="1478" d="M536 2166l203 -256l203 256h317v-14l-378 -432h-283l-379 432v14h317z" />
<glyph unicode="&#x2d9;" horiz-adv-x="771" d="M386 1754q-87 0 -148.5 57.5t-61.5 138.5q0 82 61.5 139.5t148.5 57.5q86 0 147.5 -57.5t61.5 -139.5q0 -81 -61.5 -138.5t-147.5 -57.5z" />
<glyph unicode="&#x2da;" horiz-adv-x="1014" d="M507 1703q-97 0 -176 44.5t-126 120t-47 167.5q0 93 47 170t126 123t176 46q98 0 176.5 -46t124.5 -123t46 -170q0 -92 -46 -167.5t-124.5 -120t-176.5 -44.5zM507 1873q73 0 120.5 49t47.5 113q0 65 -47.5 116.5t-120.5 50.5q-72 0 -120 -51t-48 -116q0 -64 48 -113.5 t120 -48.5z" />
<glyph unicode="&#x2dc;" horiz-adv-x="1408" d="M410 1723l-219 5q0 179 92.5 279.5t226.5 100.5q70 0 120.5 -25.5t94.5 -54.5q37 -24 73 -43t79 -19q57 0 90.5 43t34.5 110l215 -9q-1 -178 -93 -277t-226 -100q-80 0 -130.5 26t-91.5 55q-33 24 -66.5 42.5t-78.5 18.5q-53 0 -87 -42t-34 -110z" />
<glyph unicode="&#x2000;" horiz-adv-x="1393" />
<glyph unicode="&#x2001;" horiz-adv-x="2787" />
<glyph unicode="&#x2002;" horiz-adv-x="1393" />
<glyph unicode="&#x2003;" horiz-adv-x="2787" />
<glyph unicode="&#x2004;" horiz-adv-x="929" />
<glyph unicode="&#x2005;" horiz-adv-x="696" />
<glyph unicode="&#x2006;" horiz-adv-x="464" />
<glyph unicode="&#x2007;" horiz-adv-x="464" />
<glyph unicode="&#x2008;" horiz-adv-x="348" />
<glyph unicode="&#x2009;" horiz-adv-x="557" />
<glyph unicode="&#x200a;" horiz-adv-x="154" />
<glyph unicode="&#x2010;" horiz-adv-x="1312" d="M1117 1002v-298h-922v298h922z" />
<glyph unicode="&#x2011;" horiz-adv-x="1312" d="M1117 1002v-298h-922v298h922z" />
<glyph unicode="&#x2012;" horiz-adv-x="1312" d="M1117 1002v-298h-922v298h922z" />
<glyph unicode="&#x2013;" horiz-adv-x="1408" d="M1408 1002v-298h-1408v298h1408z" />
<glyph unicode="&#x2014;" horiz-adv-x="2816" d="M2816 1002v-298h-2816v298h2816z" />
<glyph unicode="&#x2018;" horiz-adv-x="642" d="M149 1408v204q0 89 33.5 184t92 180.5t131.5 144.5l168 -109q-58 -88 -98 -185t-39 -213v-206h-288z" />
<glyph unicode="&#x2019;" horiz-adv-x="642" d="M493 2048v-204q0 -133 -73.5 -275t-183.5 -234l-168 109q55 83 96 179.5t41 218.5v206h288z" />
<glyph unicode="&#x201a;" horiz-adv-x="642" d="M493 256v-204q0 -133 -73.5 -275t-183.5 -234l-168 109q55 83 96 179.5t41 218.5v206h288z" />
<glyph unicode="&#x201c;" horiz-adv-x="1149" d="M149 1408v204q0 89 33.5 184t92 180.5t131.5 144.5l168 -109q-58 -88 -98 -185t-39 -213v-206h-288zM656 1408v204q0 89 33.5 184t92 180.5t131.5 144.5l168 -109q-58 -88 -98 -185t-39 -213v-206h-288z" />
<glyph unicode="&#x201d;" horiz-adv-x="1147" d="M493 2048v-204q0 -133 -73.5 -275t-183.5 -234l-168 109q55 83 96 179.5t41 218.5v206h288zM999 2048v-204q0 -133 -73.5 -275t-183.5 -234l-168 109q55 83 96 179.5t41 218.5v206h288z" />
<glyph unicode="&#x201e;" horiz-adv-x="1147" d="M490 256v-204q0 -133 -73.5 -275t-183.5 -234l-168 109q55 83 96 179.5t41 218.5v206h288zM996 256v-204q0 -133 -73.5 -275t-183.5 -234l-168 109q55 83 96 179.5t41 218.5v206h288z" />
<glyph unicode="&#x2022;" horiz-adv-x="1280" d="M640 376q-121 0 -221 59.5t-159.5 159.5t-59.5 221q0 122 59.5 221.5t159.5 159t221 59.5q122 0 221.5 -59.5t159 -159t59.5 -221.5q0 -121 -59.5 -221t-159 -159.5t-221.5 -59.5z" />
<glyph unicode="&#x2026;" horiz-adv-x="2270" d="M415 -22q-91 0 -156 64.5t-64 155.5q-1 90 64 154t156 64q89 0 154 -64t66 -154q-1 -91 -66 -155.5t-154 -64.5zM1142 -22q-91 0 -156 64.5t-64 155.5q-1 90 64 154t156 64q89 0 154 -64t66 -154q-1 -91 -66 -155.5t-154 -64.5zM1868 -22q-91 0 -156 64.5t-64 155.5 q-1 90 64 154t156 64q89 0 154 -64t66 -154q-1 -91 -66 -155.5t-154 -64.5z" />
<glyph unicode="&#x202f;" horiz-adv-x="557" />
<glyph unicode="&#x2039;" horiz-adv-x="1072" d="M902 220h-326l-404 600v28l404 600h326l-380 -614z" />
<glyph unicode="&#x203a;" horiz-adv-x="1072" d="M158 220l380 614l-380 614h326l404 -600v-28l-404 -600h-326z" />
<glyph unicode="&#x2044;" horiz-adv-x="770" d="M-445 0l1408 2048h251l-1408 -2048h-251z" />
<glyph unicode="&#x205f;" horiz-adv-x="696" />
<glyph unicode="&#x20ac;" horiz-adv-x="1912" d="M1502 1337l-97 -213h-700q-3 -49 -3 -102q0 -51 3 -98h612l-103 -216h-476q54 -204 178 -303t292 -99q132 0 232.5 49.5t165.5 101.5l142 -298q-107 -93 -246 -140t-294 -47q-319 0 -545 193t-299 543h-286l79 216h179q-3 48 -3 98q0 52 3 102h-258l79 213h207 q73 350 299 544.5t545 194.5q161 0 298 -50.5t248 -143.5l-140 -298q-72 57 -173.5 107.5t-232.5 50.5q-168 0 -292 -100t-178 -305h764z" />
<glyph unicode="&#x2122;" horiz-adv-x="1776" d="M1205 1312l-184 445v-445h-167v736h200l197 -504l198 504h199v-736h-166v446l-185 -446h-92zM336 1312v597h-224v139h614v-139h-224v-597h-166z" />
<glyph unicode="&#x25fc;" horiz-adv-x="1535" d="M0 1535h1535v-1535h-1535v1535z" />
<glyph horiz-adv-x="1074" d="M115 0v184l438 349q79 64 124 113.5t45 110.5q0 68 -55.5 106.5t-136.5 38.5q-83 0 -136.5 -41.5t-53.5 -116.5h-243q0 165 122.5 262.5t315.5 97.5q196 0 312.5 -99t116.5 -244q0 -115 -72 -207.5t-230 -203.5l-179 -132v-10h502v-208h-870z" />
<glyph horiz-adv-x="1144" d="M81 182v202l513 704h320v-700h157v-206h-157v-182h-243v182h-590zM675 388v426h-9l-324 -419v-7h333z" />
<glyph horiz-adv-x="796" d="M602 2112v-1088h-252v778h-12q-19 -27 -83.5 -51t-166.5 -23v203q122 -1 194 61.5t75 119.5h245z" />
<glyph horiz-adv-x="1114" d="M556 1008q-206 0 -335 95t-131 237h260q2 -55 61 -87.5t143 -32.5q90 0 148 36t58 94q0 59 -60.5 96t-166.5 37h-117v188h117q87 0 143.5 36t56.5 93q0 56 -48.5 91t-126.5 35t-136.5 -33.5t-60.5 -88.5h-247q4 143 131 233.5t314 90.5q188 0 305.5 -89.5t117.5 -220.5 q0 -91 -63.5 -151.5t-167.5 -74.5v-10q134 -14 204.5 -81.5t70.5 -167.5q0 -142 -133 -233.5t-337 -91.5z" />
<glyph horiz-adv-x="1558" d="M480 2242q-79 0 -136.5 56t-57.5 132q0 80 57.5 134.5t136.5 54.5q81 0 136.5 -54.5t55.5 -134.5q0 -76 -55.5 -132t-136.5 -56zM1080 2242q-79 0 -136.5 56t-57.5 132q0 80 57.5 134.5t136.5 54.5q81 0 136.5 -54.5t55.5 -134.5q0 -76 -55.5 -132t-136.5 -56z" />
<glyph horiz-adv-x="1326" d="M369 2250l-219 5q0 179 92.5 279.5t226.5 100.5q70 0 120.5 -25.5t94.5 -54.5q37 -24 73 -43t79 -19q57 0 90.5 43t34.5 110l215 -9q-1 -178 -93 -277t-226 -100q-80 0 -130.5 26t-91.5 55q-33 24 -66.5 42.5t-78.5 18.5q-53 0 -87 -42t-34 -110z" />
<glyph horiz-adv-x="1014" d="M507 2166q-90 0 -164 42t-118.5 113t-44.5 156q0 86 44.5 156t118.5 112t164 42q91 0 165 -42t118 -112t44 -156q0 -85 -44 -156t-118 -113t-165 -42zM507 2333q62 0 106 42t44 102t-44 102t-106 42q-61 -1 -105 -42.5t-44 -101.5t43.5 -102.5t105.5 -41.5z" />
</font>
</defs>
</svg>
