<?xml version="1.0" standalone="no"?>
<!DOCTYPE svg PUBLIC "-//W3C//DTD SVG 1.1//EN" "http://www.w3.org/Graphics/SVG/1.1/DTD/svg11.dtd" >
<svg xmlns="http://www.w3.org/2000/svg" xmlns:xlink="http://www.w3.org/1999/xlink" version="1.1">
<metadata></metadata>
<defs>
<font id="interregular" horiz-adv-x="1808" >
<font-face units-per-em="2816" ascent="2252" descent="-564" />
<missing-glyph horiz-adv-x="792" />
<glyph horiz-adv-x="0" />
<glyph horiz-adv-x="938" />
<glyph horiz-adv-x="0" />
<glyph unicode="&#x9;" horiz-adv-x="768" />
<glyph unicode=" "  horiz-adv-x="792" />
<glyph unicode="&#x09;" horiz-adv-x="792" />
<glyph unicode="&#xa0;" horiz-adv-x="792" />
<glyph unicode="!" horiz-adv-x="784" d="M528 2048l-20 -1472h-232l-20 1472h272zM392 -16q-74 0 -127 53t-53 127t53 127t127 53t127 -53t53 -127t-53 -127t-127 -53z" />
<glyph unicode="&#x22;" horiz-adv-x="1136" d="M420 2048v-704h-220v704h220zM932 2048v-704h-220v704h220z" />
<glyph unicode="#" horiz-adv-x="1776" d="M980 0l93 568h-520l-93 -568h-200l93 568h-305l32 200h306l84 512h-302l32 200h303l93 568h200l-93 -568h520l93 568h200l-93 -568h305l-32 -200h-306l-84 -512h302l-32 -200h-303l-93 -568h-200zM586 768h520l84 512h-520z" />
<glyph unicode="$" horiz-adv-x="1796" d="M816 -256v223q-295 19 -467 172t-189 389h256q13 -155 128 -237.5t272 -98.5v757l-80 23q-240 69 -380 197t-140 335q0 157 78.5 278.5t214 196t307.5 92.5v233h164v-230q181 -12 321 -84.5t221 -190t86 -263.5h-240q-16 136 -122.5 218.5t-265.5 98.5v-711l80 -22 q80 -21 178.5 -58t189 -100.5t149.5 -162.5t59 -243q0 -156 -76.5 -284t-223 -209.5t-356.5 -95.5v-223h-164zM980 192q181 20 298.5 118.5t117.5 249.5q0 102 -57 166t-150 104t-201 70l-8 2v-710zM816 1186v664q-165 -21 -262.5 -112.5t-97.5 -221.5q0 -102 58.5 -167 t142 -103.5t159.5 -59.5z" />
<glyph unicode="%" horiz-adv-x="2288" d="M1256 384v108q0 112 46.5 205.5t136 150t217.5 56.5q130 0 218 -56.5t133 -150t45 -205.5v-108q0 -112 -45.5 -205.5t-134 -150t-216.5 -56.5q-130 0 -219 56.5t-135 150t-46 205.5zM236 1556v108q0 112 46.5 205.5t136 150t217.5 56.5q130 0 218 -56.5t133 -150 t45 -205.5v-108q0 -112 -45.5 -205.5t-134 -150t-216.5 -56.5q-130 0 -219 56.5t-135 150t-46 205.5zM312 0l1408 2048h228l-1408 -2048h-228zM1460 492v-108q0 -93 44 -166.5t152 -73.5q105 0 148.5 73.5t43.5 166.5v108q0 93 -42 166.5t-150 73.5q-105 0 -150.5 -73.5 t-45.5 -166.5zM440 1664v-108q0 -93 44 -166.5t152 -73.5q105 0 148.5 73.5t43.5 166.5v108q0 93 -42 166.5t-150 73.5q-105 0 -150.5 -73.5t-45.5 -166.5z" />
<glyph unicode="&#x26;" horiz-adv-x="1800" d="M796 -28q-202 0 -348 74t-225 203t-79 295q0 186 112.5 314.5t291.5 253.5q-106 127 -173 241.5t-67 250.5q0 207 135.5 335.5t360.5 128.5q154 0 265 -59.5t171 -157t60 -211.5q0 -147 -73 -255t-199 -201l-150 -112l445 -543q40 77 62.5 169.5t22.5 197.5h228 q0 -214 -52.5 -345.5t-110.5 -205.5l283 -345h-284l-145 174q-100 -102 -245 -152t-286 -50zM1186 345l-490 591v0l-76 -56q-138 -102 -187 -198t-49 -138q0 -96 50 -179t141 -134t213 -51q223 0 398 165zM733 1248l135 100q87 57 139.5 122t52.5 170q0 78 -68.5 151 t-179.5 73q-78 0 -137.5 -39.5t-93 -100t-33.5 -124.5q0 -85 55 -172.5t130 -179.5z" />
<glyph unicode="'" horiz-adv-x="624" d="M420 2048v-704h-220v704h220z" />
<glyph unicode="(" horiz-adv-x="1020" d="M300 864q0 378 98.5 695.5t281.5 584.5h208q-96 -132 -174 -342t-124 -455t-46 -483t46 -483t124 -455t174 -342h-208q-183 267 -281.5 584.5t-98.5 695.5z" />
<glyph unicode=")" horiz-adv-x="1020" d="M720 864q0 -378 -98.5 -695.5t-281.5 -584.5h-208q96 132 174 342t124 455t46 483t-46 483t-124 455t-174 342h208q183 -267 281.5 -584.5t98.5 -695.5z" />
<glyph unicode="*" horiz-adv-x="1408" d="M608 896l16 440l-372 -236l-96 168l392 204l-392 204l96 168l372 -236l-16 440h192l-16 -440l372 236l96 -168l-392 -204l392 -204l-96 -168l-372 236l16 -440h-192z" />
<glyph unicode="+" d="M792 164v528h-528v224h528v528h224v-528h528v-224h-528v-528h-224z" />
<glyph unicode="," horiz-adv-x="788" d="M568 280l-16 -108q-17 -114 -51.5 -244t-71.5 -245t-61 -183h-180q13 64 34 169t42.5 234.5t35.5 264.5l12 112h256z" />
<glyph unicode="-" horiz-adv-x="1296" d="M1096 988v-220h-896v220h896z" />
<glyph unicode="." horiz-adv-x="776" d="M388 -16q-74 0 -127 53t-53 127t53 127t127 53t127 -53t53 -127t-53 -127t-127 -53z" />
<glyph unicode="/" horiz-adv-x="1004" d="M940 2144l-660 -2452h-216l660 2452h216z" />
<glyph unicode="0" horiz-adv-x="1760" d="M880 -28q-339 0 -525.5 275t-186.5 777q0 498 188 775t524 277t524 -277t188 -775q0 -502 -186.5 -777t-525.5 -275zM880 192q224 0 348 216t124 616q0 399 -125 617.5t-347 218.5t-347 -218.5t-125 -617.5q0 -400 124.5 -616t347.5 -216z" />
<glyph unicode="1" horiz-adv-x="1244" d="M868 2048v-2048h-248v1688h-16q-14 -28 -72 -63.5t-150 -62t-210 -26.5v208q119 0 206 43t145.5 101t89 105t35.5 55h220z" />
<glyph unicode="2" horiz-adv-x="1704" d="M212 0v180l676 740q119 130 196 226.5t114.5 182t37.5 179.5q0 162 -112.5 257t-279.5 95q-178 0 -283 -106.5t-105 -281.5h-236q0 180 83 316t226.5 212t322.5 76q180 0 319 -76t218 -205t79 -287q0 -113 -40.5 -220.5t-140 -239t-275.5 -320.5l-460 -492v-16h952v-220 h-1292z" />
<glyph unicode="3" horiz-adv-x="1792" d="M904 -28q-198 0 -352.5 68t-245 189.5t-98.5 282.5h252q11 -148 136.5 -234t303.5 -86q197 0 324.5 100.5t127.5 263.5q0 170 -125.5 277t-358.5 107h-164v220h164q182 0 297 97t115 259q0 155 -101 249.5t-271 94.5q-106 0 -199.5 -38.5t-152.5 -111t-64 -174.5h-240 q6 161 97 282.5t238.5 189.5t324.5 68q190 0 326 -76.5t209 -201.5t73 -270q0 -173 -90.5 -295t-245.5 -169v-16q194 -32 303 -164.5t109 -327.5q0 -167 -90.5 -299.5t-246.5 -208.5t-355 -76z" />
<glyph unicode="4" d="M164 420v204l900 1424h300v-1408h280v-220h-280v-420h-236v420h-964zM1128 640v1092h-16l-680 -1076v-16h696z" />
<glyph unicode="5" horiz-adv-x="1712" d="M852 -28q-176 0 -317 70t-226 192t-93 278h240q14 -139 126.5 -229.5t269.5 -90.5q126 0 224.5 59t155 162.5t56.5 234.5q0 134 -58.5 239.5t-160.5 166.5t-233 62q-94 1 -193 -28.5t-163 -75.5l-232 28l124 1008h1064v-220h-856l-72 -604h12q63 50 158 83t198 33 q188 0 335.5 -89.5t232 -244.5t84.5 -354q0 -196 -87.5 -349.5t-240.5 -242t-348 -88.5z" />
<glyph unicode="6" horiz-adv-x="1756" d="M892 -28q-126 2 -252 48t-230 155.5t-167 297t-63 471.5q0 546 199 841t545 295q258 0 428.5 -151t207.5 -393h-244q-34 141 -132 232.5t-260 91.5q-238 0 -374.5 -207.5t-137.5 -584.5h16q84 127 215 199.5t289 72.5q176 0 322 -87.5t234 -241t88 -351.5 q0 -190 -85 -347.5t-238.5 -250t-360.5 -90.5zM892 192q126 0 226.5 63t159 169t58.5 236q0 127 -56.5 231.5t-155 166.5t-224.5 62q-127 0 -229 -65t-162 -170.5t-61 -228.5q0 -122 57.5 -228t158 -171t228.5 -65z" />
<glyph unicode="7" horiz-adv-x="1608" d="M276 0l916 1812v16h-1056v220h1312v-232l-912 -1816h-260z" />
<glyph unicode="8" horiz-adv-x="1736" d="M868 -28q-206 0 -363.5 73.5t-245.5 203t-87 295.5q-1 130 51 240.5t142.5 185t202.5 94.5v12q-147 38 -234 165.5t-86 290.5q-1 156 79 279t220.5 194t320.5 71q178 0 318 -71t220.5 -194t81.5 -279q-1 -163 -88.5 -290.5t-231.5 -165.5v-12q111 -20 200 -94.5t142 -185 t54 -240.5q-1 -166 -89.5 -295.5t-245 -203t-361.5 -73.5zM868 192q208 0 329.5 99.5t122.5 264.5q-1 116 -60 205t-160.5 140t-231.5 51q-131 0 -233.5 -51t-161 -140t-57.5 -205q-1 -165 120 -264.5t332 -99.5zM868 1164q165 0 272 96.5t108 255.5q-1 156 -105.5 250 t-274.5 94q-172 0 -276.5 -94t-103.5 -250q-1 -159 105.5 -255.5t274.5 -96.5z" />
<glyph unicode="9" horiz-adv-x="1756" d="M864 2080q126 -1 252 -48t230 -156t167 -296.5t63 -471.5q0 -546 -199.5 -841t-544.5 -295q-258 0 -429 150.5t-207 393.5h244q33 -141 131.5 -232.5t260.5 -91.5q237 0 374.5 207t137.5 585h-16q-84 -126 -214.5 -199t-289.5 -73q-176 0 -322.5 87.5t-234 241 t-87.5 351.5q0 190 84.5 347t238 250t361.5 91zM864 1860q-126 0 -226.5 -63t-159 -169t-58.5 -236q0 -128 56.5 -232.5t155 -166t224.5 -61.5t228.5 65t163 171t60.5 228t-57.5 228t-158 171t-228.5 65z" />
<glyph unicode=":" horiz-adv-x="776" d="M388 -16q-74 0 -127 53t-53 127t53 127t127 53t127 -53t53 -127t-53 -127t-127 -53zM388 1124q-74 0 -127 53t-53 127t53 127t127 53t127 -53t53 -127t-53 -127t-127 -53z" />
<glyph unicode=";" horiz-adv-x="788" d="M568 280l-16 -108q-17 -114 -51.5 -244t-71.5 -245t-61 -183h-180q13 64 34 169t42.5 234.5t35.5 264.5l12 112h256zM424 1124q-74 0 -127 53t-53 127t53 127t127 53t127 -53t53 -127t-53 -127t-127 -53z" />
<glyph unicode="&#x3c;" d="M260 720v160l1288 656v-256l-980 -472v-16l980 -472v-256z" />
<glyph unicode="=" d="M328 396v216h1152v-216h-1152zM328 988v216h1152v-216h-1152z" />
<glyph unicode="&#x3e;" d="M1548 720l-1288 -656v256l980 472v16l-980 472v256l1288 -656v-160z" />
<glyph unicode="?" horiz-adv-x="1428" d="M524 576v12q2 191 40 304t108 183t168 129q88 53 148 139t60 205q0 147 -99.5 233.5t-240.5 86.5q-82 0 -158 -34t-127 -107t-59 -191h-252q8 170 88.5 291t213 185t294.5 64q176 0 306.5 -70t202 -192t71.5 -278q0 -166 -74 -284t-206 -198q-132 -82 -186.5 -181 t-57.5 -285v-12h-240zM652 -16q-74 0 -127 53t-53 127t53 127t127 53t127 -53t53 -127t-53 -127t-127 -53z" />
<glyph unicode="@" horiz-adv-x="2636" d="M1368 1972q281 0 492.5 -91.5t354 -247t214 -349.5t71.5 -400q0 -145 -14 -294t-59 -273.5t-138.5 -200.5t-252.5 -76q-70 0 -154 22t-149 73t-77 137h-12q-36 -87 -130.5 -156.5t-265.5 -63.5q-174 6 -291.5 97.5t-177 244t-59.5 342.5q0 180 69.5 318.5t189 222 t269.5 99.5q150 15 256.5 -31.5t127.5 -112.5h12v112h212v-904q0 -84 47 -148t137 -64q153 0 202.5 159t49.5 501q0 168 -57 328t-172.5 288t-291.5 204t-415 76q-314 0 -538 -128t-343 -367t-119 -573q0 -510 267.5 -787t780.5 -277q110 0 217 21t189 46t118 37l56 -184 q-62 -26 -161.5 -52t-212 -43t-214.5 -17q-612 0 -936 329t-324 935q0 390 147 669.5t423 429t662 149.5zM1288 1180q-114 0 -194.5 -59.5t-123 -158t-42.5 -214.5q0 -128 34 -240.5t111 -182t207 -69.5q201 0 288.5 121.5t87.5 370.5q0 252 -94 342t-274 90z" />
<glyph unicode="A" horiz-adv-x="1904" d="M332 0h-260l752 2048h256l752 -2048h-260l-206 580h-828zM616 800h672l-328 924h-16z" />
<glyph unicode="B" horiz-adv-x="1832" d="M248 0v2048h716q214 0 353 -73.5t207 -197t68 -273.5q0 -132 -46.5 -218t-122 -136t-163.5 -74v-20q94 -6 189 -66t159 -172t64 -274q0 -154 -70 -277t-221 -195t-393 -72h-740zM496 220h492q243 0 345.5 94.5t102.5 229.5q0 104 -53 192.5t-151 142t-232 53.5h-504v-712 zM496 1148h460q168 0 284 97t116 259q0 135 -94 229.5t-298 94.5h-468v-680z" />
<glyph unicode="C" horiz-adv-x="2048" d="M1896 1408h-248q-30 142 -115 239t-205 147t-256 50q-186 0 -336.5 -94t-239 -277t-88.5 -449t88.5 -449t239 -277t336.5 -94q136 0 256 50t205 147t115 239h248q-38 -210 -155 -359.5t-290 -229t-379 -79.5q-262 0 -466 128t-321 364t-117 560t117 560t321 364t466 128 q206 0 379 -79.5t290 -229t155 -359.5z" />
<glyph unicode="D" horiz-adv-x="2024" d="M880 0h-632v2048h660q298 0 510 -122.5t325 -351t113 -546.5q0 -320 -114 -550.5t-332 -354t-530 -123.5zM496 220h368q381 0 566.5 216.5t185.5 591.5q0 372 -182 586t-542 214h-396v-1608z" />
<glyph unicode="E" horiz-adv-x="1684" d="M248 0v2048h1236v-220h-988v-692h924v-220h-924v-696h1004v-220h-1252z" />
<glyph unicode="F" horiz-adv-x="1652" d="M248 0v2048h1228v-220h-980v-692h888v-220h-888v-916h-248z" />
<glyph unicode="G" horiz-adv-x="2092" d="M1648 1408q-65 202 -213.5 319t-370.5 117q-182 0 -331 -94t-237 -277t-88 -449t89 -449t241 -277t342 -94q173 0 306.5 73.5t209.5 208t80 318.5h-540v220h780v-220q0 -253 -107.5 -440t-296 -289.5t-432.5 -102.5q-272 0 -477.5 128t-320 364t-114.5 560t114.5 560 t317 364t464.5 128q216 0 392 -84.5t293 -235t155 -348.5h-256z" />
<glyph unicode="H" horiz-adv-x="2084" d="M248 0v2048h248v-912h1092v912h248v-2048h-248v916h-1092v-916h-248z" />
<glyph unicode="I" horiz-adv-x="744" d="M496 2048v-2048h-248v2048h248z" />
<glyph unicode="J" horiz-adv-x="1528" d="M1032 2048h248v-1464q0 -295 -158.5 -453.5t-425.5 -158.5q-168 0 -299 61.5t-206 175.5t-75 271h244q0 -130 95 -209t241 -79q161 0 248.5 100.5t87.5 291.5v1464z" />
<glyph unicode="K" horiz-adv-x="1836" d="M248 0v2048h248v-1016h24l920 1016h324l-860 -924l860 -1124h-300l-712 952l-256 -288v-664h-248z" />
<glyph unicode="L" horiz-adv-x="1584" d="M248 0v2048h248v-1828h952v-220h-1200z" />
<glyph unicode="M" horiz-adv-x="2568" d="M248 2048h296l696 -1700h24l696 1700h296v-2048h-232v1556h-20l-640 -1556h-224l-640 1556h-20v-1556h-232v2048z" />
<glyph unicode="N" horiz-adv-x="2120" d="M1872 2048v-2048h-240l-1116 1608h-20v-1608h-248v2048h240l1120 -1612h20v1612h244z" />
<glyph unicode="O" horiz-adv-x="2144" d="M1976 1024q0 -324 -117 -560t-321 -364t-466 -128t-466 128t-321 364t-117 560t117 560t321 364t466 128t466 -128t321 -364t117 -560zM1736 1024q0 266 -88.5 449t-239 277t-336.5 94t-336.5 -94t-239 -277t-88.5 -449t88.5 -449t239 -277t336.5 -94t336.5 94t239 277 t88.5 449z" />
<glyph unicode="P" horiz-adv-x="1788" d="M248 0v2048h692q241 0 394.5 -86.5t227.5 -233.5t74 -328t-73.5 -329t-226.5 -235.5t-392 -87.5h-448v-748h-248zM496 968h440q247 0 351.5 124t104.5 308q0 185 -105 306.5t-355 121.5h-436v-860z" />
<glyph unicode="Q" horiz-adv-x="2144" d="M1976 1024q0 -288 -94 -507.5t-257 -353.5l267 -355h-272l-179 240q-170 -76 -369 -76q-262 0 -466 128t-321 364t-117 560t117 560t321 364t466 128t466 -128t321 -364t117 -560zM992 640h272l218 -287q117 102 185.5 270.5t68.5 400.5q0 266 -88.5 449t-239 277 t-336.5 94t-336.5 -94t-239 -277t-88.5 -449t88.5 -449t239 -277t336.5 -94q119 0 224 38z" />
<glyph unicode="R" horiz-adv-x="1800" d="M248 0v2048h692q240 0 394 -81.5t228 -223.5t74 -323q0 -204 -93.5 -355.5t-289.5 -218.5l463 -846h-288l-432 801q-25 -1 -52 -1h-448v-800h-248zM496 1024h440q246 0 351 106t105 290q0 185 -105.5 296.5t-354.5 111.5h-436v-804z" />
<glyph unicode="S" horiz-adv-x="1796" d="M1368 1536q-18 152 -146 236t-314 84q-204 0 -328 -96.5t-124 -243.5q0 -110 67.5 -177.5t160 -105t168.5 -57.5l208 -56q80 -21 178.5 -58t189 -100.5t149.5 -162.5t59 -243q0 -166 -86.5 -300t-252 -213t-401.5 -79q-330 0 -524 156t-212 408h256q10 -116 78.5 -191.5 t174 -112t227.5 -36.5q142 0 255 46.5t179 130t66 195.5q0 102 -57 166t-150 104t-201 70l-252 72q-240 69 -380 197t-140 335q0 172 93.5 300.5t252 200t354.5 71.5q198 0 352 -70.5t244.5 -192.5t95.5 -277h-240z" />
<glyph unicode="T" d="M136 1828v220h1536v-220h-644v-1828h-248v1828h-644z" />
<glyph unicode="U" horiz-adv-x="2088" d="M1592 2048h248v-1356q0 -230 -109 -393t-290 -249t-397 -86t-397 86t-290 249t-109 393v1356h248v-1356q0 -160 76 -270.5t201 -168t271 -57.5t271 57.5t201 168t76 270.5v1356z" />
<glyph unicode="V" horiz-adv-x="1904" d="M332 2048l608 -1724h24l608 1724h260l-752 -2048h-256l-752 2048h260z" />
<glyph unicode="W" horiz-adv-x="2672" d="M620 0l-560 2048h252l428 -1668h20l436 1668h280l436 -1668h20l428 1668h252l-560 -2048h-256l-452 1632h-16l-452 -1632h-256z" />
<glyph unicode="X" d="M368 2048l528 -852h16l528 852h292l-644 -1024l644 -1024h-292l-528 836h-16l-528 -836h-292l660 1024l-660 1024h292z" />
<glyph unicode="Y" horiz-adv-x="1872" d="M72 2048h284l568 -956h24l568 956h284l-740 -1204v-844h-248v844z" />
<glyph unicode="Z" horiz-adv-x="1760" d="M180 0v180l1104 1648h-1116v220h1412v-180l-1104 -1648h1116v-220h-1412z" />
<glyph unicode="[" horiz-adv-x="1020" d="M332 -416v2560h592v-196h-368v-2168h368v-196h-592z" />
<glyph unicode="\" horiz-adv-x="1008" d="M88 2048h232l596 -2356h-232z" />
<glyph unicode="]" horiz-adv-x="1020" d="M688 2144v-2560h-592v196h368v2168h-368v196h592z" />
<glyph unicode="^" horiz-adv-x="1320" d="M112 1120l412 864h272l412 -864h-236l-305 652h-13l-302 -652h-240z" />
<glyph unicode="_" horiz-adv-x="1272" d="M1276 0v-220h-1280v220h1280z" />
<glyph unicode="`" horiz-adv-x="1400" d="M960 1744h-208l-312 464h276z" />
<glyph unicode="a" horiz-adv-x="1588" d="M668 -36q-146 0 -265 55.5t-189 161t-70 255.5q0 132 52 214.5t139 129.5t192.5 70.5t212.5 37.5q140 18 227.5 27.5t128 32.5t40.5 80v8q0 148 -80.5 230t-243.5 82q-169 0 -265 -74t-135 -158l-224 80q60 140 160.5 218.5t220 110t235.5 31.5q74 0 170.5 -17.5 t187 -71.5t150.5 -163t60 -292v-1012h-236v208h-12q-24 -50 -80 -107t-149 -97t-227 -40zM704 176q140 0 236.5 55t146 142t49.5 183v216q-15 -18 -65.5 -32.5t-116 -25t-127 -18t-99.5 -12.5q-92 -12 -171.5 -38.5t-128 -79t-48.5 -142.5q0 -123 91.5 -185.5t232.5 -62.5z " />
<glyph unicode="b" horiz-adv-x="1748" d="M248 0v2048h236v-756h20q26 40 72.5 102.5t134 112t237.5 49.5q194 0 342 -97t231 -275t83 -420q0 -244 -83 -422.5t-230 -276t-339 -97.5q-148 0 -237 49.5t-137 113t-74 105.5h-28v-236h-228zM480 768q0 -261 113.5 -424.5t326.5 -163.5q148 0 247.5 78.5t150 212 t50.5 297.5q0 162 -49.5 292.5t-149 207t-249.5 76.5q-216 0 -328 -159t-112 -417z" />
<glyph unicode="c" horiz-adv-x="1572" d="M840 -32q-216 0 -372 102t-240 281t-84 409q0 234 86.5 413.5t242 281t363.5 101.5q162 0 292 -60t213 -168t103 -252h-236q-27 105 -119.5 186.5t-248.5 81.5q-207 0 -333.5 -157.5t-126.5 -418.5q0 -267 125 -427.5t335 -160.5q138 0 236.5 71t131.5 197h236 q-20 -136 -98.5 -244.5t-207 -172t-298.5 -63.5z" />
<glyph unicode="d" horiz-adv-x="1748" d="M796 -32q-192 0 -339 97.5t-230 276t-83 422.5q0 242 83 420t231 275t342 97q150 0 237.5 -49.5t134 -112t72.5 -102.5h20v756h236v-2048h-228v236h-28q-26 -42 -74 -105.5t-137 -113t-237 -49.5zM828 180q213 0 326.5 163.5t113.5 424.5q0 258 -112 417t-328 159 q-150 0 -249.5 -76.5t-149 -207t-49.5 -292.5q0 -164 50.5 -297.5t150 -212t247.5 -78.5z" />
<glyph unicode="e" horiz-adv-x="1640" d="M860 -32q-222 0 -382.5 98.5t-247 276t-86.5 413.5t86.5 416.5t242 282t363.5 101.5q120 0 237 -40t213 -129.5t153 -236.5t57 -362v-100h-1115q8 -246 139.5 -377t339.5 -131q139 0 239 60t145 180l228 -64q-54 -174 -216 -281t-396 -107zM381 892h875q0 195 -114 323.5 t-306 128.5q-135 0 -234 -63t-156 -166.5t-65 -222.5z" />
<glyph unicode="f" horiz-adv-x="1016" d="M900 1536v-200h-344v-1336h-236v1336h-248v200h248v212q0 132 62 220t161 132t209 44q87 0 142 -14t82 -26l-68 -204q-18 6 -49.5 15t-82.5 9q-117 0 -168.5 -59t-51.5 -173v-156h344z" />
<glyph unicode="g" horiz-adv-x="1716" d="M836 -608q-257 0 -406.5 93.5t-221.5 214.5l188 132q32 -42 81 -96.5t134.5 -95t224.5 -40.5q186 0 307 90t121 282v312h-20q-26 -42 -73.5 -103.5t-136 -109t-238.5 -47.5q-186 0 -333.5 88t-233 256t-85.5 408q0 236 83 411.5t231 272t342 96.5q150 0 238.5 -49.5 t136 -112t73.5 -102.5h24v244h228v-1580q0 -198 -89.5 -322.5t-240 -183t-334.5 -58.5zM828 236q213 0 326.5 144.5t113.5 399.5q0 249 -112 406.5t-328 157.5q-150 0 -249.5 -76t-149 -204t-49.5 -284q0 -240 113 -392t335 -152z" />
<glyph unicode="h" horiz-adv-x="1664" d="M452 924v-924h-236v2048h236v-752h20q54 119 162.5 189.5t289.5 70.5q236 0 380 -142t144 -438v-976h-236v960q0 183 -94.5 283.5t-261.5 100.5q-175 0 -289.5 -109.5t-114.5 -310.5z" />
<glyph unicode="i" horiz-adv-x="668" d="M216 0v1536h236v-1536h-236zM336 1792q-69 0 -118.5 47t-49.5 113t49.5 113t118.5 47t118.5 -47t49.5 -113t-49.5 -113t-118.5 -47z" />
<glyph unicode="j" horiz-adv-x="668" d="M216 1536h236v-1648q0 -213 -109 -338.5t-331 -125.5h-48v220h44q108 0 158 63.5t50 180.5v1648zM332 1792q-69 0 -118.5 47t-49.5 113t49.5 113t118.5 47t118.5 -47t49.5 -113t-49.5 -113t-118.5 -47z" />
<glyph unicode="k" horiz-adv-x="1532" d="M216 0v2048h236v-1196h28l672 684h292l-649 -656l697 -880h-300l-575 728l-165 -153v-575h-236z" />
<glyph unicode="l" horiz-adv-x="668" d="M452 2048v-2048h-236v2048h236z" />
<glyph unicode="m" horiz-adv-x="2448" d="M216 0v1536h228v-240h20q48 123 155 191.5t257 68.5q152 0 253.5 -68.5t158.5 -191.5h16q59 119 177 189.5t283 70.5q206 0 337 -128.5t131 -399.5v-1028h-236v1028q0 170 -93 243t-219 73q-162 0 -251 -97.5t-89 -246.5v-1000h-240v1052q0 131 -85 211.5t-219 80.5 q-92 0 -171.5 -49t-128 -135.5t-48.5 -199.5v-960h-236z" />
<glyph unicode="n" horiz-adv-x="1648" d="M452 924v-924h-236v1536h228v-240h20q54 117 164 188.5t284 71.5q233 0 376.5 -143t143.5 -437v-976h-236v960q0 181 -94 282.5t-258 101.5q-169 0 -280.5 -109.5t-111.5 -310.5z" />
<glyph unicode="o" horiz-adv-x="1680" d="M840 -32q-208 0 -364.5 99t-244 277t-87.5 416q0 240 87.5 419t244 278t364.5 99t364.5 -99t244 -278t87.5 -419q0 -238 -87.5 -416t-244 -277t-364.5 -99zM840 180q158 0 260 81t151 213t49 286t-49 287t-151 215t-260 82t-260 -82t-151 -215t-49 -287t49 -286t151 -213 t260 -81z" />
<glyph unicode="p" horiz-adv-x="1716" d="M216 -576v2112h228v-244h28q26 40 72.5 102.5t134 112t237.5 49.5q194 0 342 -97t231 -275t83 -420q0 -244 -83 -422.5t-230 -276t-339 -97.5q-148 0 -237 49.5t-137 113t-74 105.5h-20v-812h-236zM448 768q0 -261 113.5 -424.5t326.5 -163.5q148 0 247.5 78.5t150 212 t50.5 297.5q0 162 -49.5 292.5t-149 207t-249.5 76.5q-216 0 -328 -159t-112 -417z" />
<glyph unicode="q" horiz-adv-x="1716" d="M1500 -576v2112h-228v-244h-28q-26 40 -72.5 102.5t-134 112t-237.5 49.5q-194 0 -342 -97t-231 -275t-83 -420q0 -244 83 -422.5t230 -276t339 -97.5q148 0 237 49.5t137 113t74 105.5h20v-812h236zM1268 768q0 -261 -113.5 -424.5t-326.5 -163.5q-148 0 -247.5 78.5 t-150 212t-50.5 297.5q0 162 49.5 292.5t149 207t249.5 76.5q216 0 328 -159t112 -417z" />
<glyph unicode="r" horiz-adv-x="1080" d="M216 0v1536h228v-232h16q41 114 151 185t249 71q64 0 112 -15t84 -41l-80 -200q-25 13 -58.5 20.5t-77.5 7.5q-168 0 -278 -102.5t-110 -257.5v-972h-236z" />
<glyph unicode="s" horiz-adv-x="1472" d="M1304 1192l-212 -60q-31 80 -104 150t-228 70q-141 0 -234.5 -64.5t-93.5 -163.5q0 -88 64 -139t200 -85l228 -56q408 -100 408 -416q0 -132 -75.5 -236t-210.5 -164t-314 -60q-235 0 -389 102t-195 298l224 56q63 -248 356 -248q165 0 262.5 70.5t97.5 169.5 q0 163 -228 216l-256 60q-211 50 -309.5 155.5t-98.5 264.5q0 130 73.5 230t201 157t289.5 57q228 0 358.5 -100t185.5 -264z" />
<glyph unicode="t" horiz-adv-x="1024" d="M884 1536v-200h-328v-896q0 -100 29.5 -149.5t76 -66t98.5 -16.5q39 0 64 4.5t40 7.5l48 -212q-24 -9 -67 -18.5t-109 -9.5q-100 0 -195.5 43t-158 131t-62.5 222v960h-232v200h232v368h236v-368h328z" />
<glyph unicode="u" horiz-adv-x="1636" d="M1184 628v908h236v-1536h-236v260h-16q-54 -117 -168 -198.5t-288 -81.5q-216 0 -356 143t-140 437v976h236v-960q0 -168 94.5 -268t241.5 -100q88 0 179.5 45t154 138t62.5 237z" />
<glyph unicode="v" horiz-adv-x="1568" d="M1472 1536l-568 -1536h-240l-568 1536h256l424 -1224h16l424 1224h256z" />
<glyph unicode="w" horiz-adv-x="2288" d="M564 0l-468 1536h248l332 -1176h16l328 1176h252l324 -1172h16l332 1172h248l-468 -1536h-232l-336 1180h-24l-336 -1180h-232z" />
<glyph unicode="x" horiz-adv-x="1520" d="M392 1536l368 -628l368 628h272l-496 -768l496 -768h-272l-368 596l-368 -596h-272l488 768l-488 768h272z" />
<glyph unicode="y" horiz-adv-x="1568" d="M360 -596q-60 0 -107 9.5t-65 18.5l60 208q129 -33 215.5 1.5t148.5 206.5l52 144l-568 1544h256l424 -1224h16l424 1224h256l-660 -1784q-130 -348 -452 -348z" />
<glyph unicode="z" horiz-adv-x="1524" d="M172 0v180l872 1120v16h-844v220h1148v-188l-848 -1112v-16h876v-220h-1204z" />
<glyph unicode="{" horiz-adv-x="1020" d="M924 -416q-294 0 -407 130t-113 406v320q0 164 -66.5 234t-233.5 70v240q167 0 233.5 70t66.5 234v320q0 276 113 406t407 130v-196q-174 0 -239 -82t-65 -258v-400q0 -122 -54 -208.5t-226 -120.5v-30q172 -34 226 -120.5t54 -208.5v-400q0 -175 65 -257.5t239 -82.5 v-196z" />
<glyph unicode="|" horiz-adv-x="920" d="M560 2708v-3368h-200v3368h200z" />
<glyph unicode="}" horiz-adv-x="1020" d="M96 2144q294 0 407 -130t113 -406v-320q0 -164 66.5 -234t233.5 -70v-240q-167 0 -233.5 -70t-66.5 -234v-320q0 -276 -113 -406t-407 -130v196q174 0 239 82t65 258v400q0 122 54 208.5t226 120.5v30q-172 34 -226 120.5t-54 208.5v400q0 175 -65 257.5t-239 82.5v196z " />
<glyph unicode="~" d="M208 608q-3 166 54 267t148.5 147t193.5 46t186.5 -44.5t193.5 -139.5q74 -64 118.5 -90t97.5 -26q86 0 136 62.5t48 181.5h216q3 -166 -53.5 -267t-148.5 -147t-194 -46t-186 44.5t-194 139.5q-73 64 -118 90t-98 26q-81 0 -133.5 -56.5t-50.5 -187.5h-216z" />
<glyph unicode="&#xa1;" horiz-adv-x="784" d="M528 -520l-20 1472h-232l-20 -1472h272zM392 1544q-74 0 -127 -53t-53 -127t53 -127t127 -53t127 53t53 127t-53 127t-127 53z" />
<glyph unicode="&#xa2;" horiz-adv-x="1572" d="M744 -256v230q-187 23 -321.5 129t-206.5 275.5t-72 381.5q0 216 74 386.5t209 276t317 127.5v230h164v-227q216 -20 362 -148.5t174 -328.5h-236q-24 93 -99.5 169t-200.5 94v-1154q113 16 192 84.5t108 178.5h236q-28 -190 -169 -324t-367 -153v-227h-164zM744 190 v1144q-166 -35 -265 -186t-99 -380q0 -235 98 -389t266 -189z" />
<glyph unicode="&#xa3;" horiz-adv-x="1776" d="M1540 0h-1356v220h80q60 0 92 60t43 140t9 140l-8 236h-224v228h217l-13 404q-8 218 79.5 362t230 215t298.5 71q143 0 260 -51.5t197 -138.5t112 -195.5t3 -222.5l-232 64q14 104 -31.5 176.5t-126 110t-170.5 37.5q-96 0 -185 -45.5t-146 -140t-57 -242.5l15 -404h481 v-228h-473l9 -236q5 -100 -11.5 -189t-63.5 -151h971v-220z" />
<glyph unicode="&#xa4;" horiz-adv-x="2036" d="M196 836q0 149 43 281t119 239l-194 200l160 168l195 -198q103 81 228.5 125.5t264.5 44.5q141 0 268.5 -46t230.5 -128l197 202l164 -168l-201 -203q76 -107 118.5 -238.5t42.5 -278.5q0 -141 -39 -268t-109 -232l188 -188l-164 -168l-178 183q-106 -90 -238.5 -140.5 t-279.5 -50.5q-146 0 -276.5 49.5t-235.5 137.5l-176 -179l-160 168l182 184q-71 106 -110.5 233.5t-39.5 270.5zM416 836q0 -176 80.5 -322.5t216 -234t299.5 -87.5t298.5 87.5t214 234t79.5 322.5q0 178 -79.5 324t-214 233t-298.5 87t-299.5 -87t-216 -233t-80.5 -324z " />
<glyph unicode="&#xa5;" horiz-adv-x="1544" d="M316 2048l447 -972h18l447 972h276l-512 -1028h352v-180h-442l-6 -12v-204h448v-180h-448v-444h-248v444h-448v180h448v204l-6 12h-442v180h352l-512 1028h276z" />
<glyph unicode="&#xa6;" horiz-adv-x="748" d="M264 552h220v-936h-220v936zM484 2048v-932h-220v932h220z" />
<glyph unicode="&#xa7;" horiz-adv-x="1552" d="M1272 1564h-228q0 129 -65.5 214.5t-206.5 85.5q-135 0 -197.5 -70.5t-62.5 -145.5q0 -90 72 -162t144 -114l388 -228q52 -30 120.5 -86t120 -143t51.5 -211q0 -74 -38.5 -148t-102 -131t-139.5 -81v-4q72 -63 106 -145.5t34 -178.5q0 -148 -72 -243.5t-188 -142 t-248 -46.5q-158 0 -281 62.5t-193 178t-70 275.5h232q0 -147 88.5 -225.5t223.5 -78.5q111 0 195.5 54.5t84.5 165.5q0 76 -34 127t-84 86t-98 63l-388 224q-52 30 -120.5 87t-120 145t-51.5 212q0 72 36 147t99 134t145 83v8q-63 63 -101.5 141.5t-38.5 174.5 q0 124 63 220.5t173 152t252 55.5q231 0 365.5 -143.5t134.5 -368.5zM1188 704q0 87 -58 152.5t-130 107.5l-392 228q-44 26 -101.5 1t-100 -87t-42.5 -146q0 -96 58.5 -157.5t133.5 -106.5l372 -216q42 -24 103.5 0t109 83t47.5 141z" />
<glyph unicode="&#xa8;" horiz-adv-x="1664" d="M544 1792q-63 0 -111.5 48.5t-48.5 111.5q0 69 48.5 114.5t111.5 45.5q69 0 114.5 -45.5t45.5 -114.5q0 -63 -45.5 -111.5t-114.5 -48.5zM1120 1792q-63 0 -111.5 48.5t-48.5 111.5q0 69 48.5 114.5t111.5 45.5q69 0 114.5 -45.5t45.5 -114.5q0 -63 -45.5 -111.5 t-114.5 -48.5z" />
<glyph unicode="&#xa9;" horiz-adv-x="2288" d="M168 1004q0 218 76 404.5t211 327t311.5 218.5t377.5 78q203 0 379.5 -78t311 -218.5t210 -327t75.5 -404.5q0 -219 -75.5 -407t-210 -328t-311 -218.5t-379.5 -78.5q-201 0 -377.5 78.5t-311.5 218.5t-211 328t-76 407zM336 1004q0 -183 63 -339.5t174.5 -273.5 t258 -182t312.5 -65q168 0 314.5 65t257.5 182t173.5 273.5t62.5 339.5q0 182 -62.5 337.5t-173.5 272t-257.5 181.5t-314.5 65q-166 0 -312.5 -65t-258 -181.5t-174.5 -272t-63 -337.5zM1372 820h216q0 -216 -125 -324t-335 -108q-222 0 -351 147.5t-129 384.5v164 q0 237 129 384.5t351 147.5q210 0 335 -108t125 -324h-212q0 132 -64 190t-184 58q-132 0 -200 -97.5t-68 -250.5v-164q0 -153 68 -250.5t200 -97.5q120 0 182 56.5t62 191.5z" />
<glyph unicode="&#xaa;" horiz-adv-x="1264" d="M810 1066q-42 -46 -110.5 -80t-167.5 -34q-165 0 -254.5 85.5t-89.5 226.5q0 153 117.5 236.5t354.5 83.5h140v68q0 176 -160 176q-90 0 -141 -35t-51 -101l-236 20q0 138 116.5 229t311.5 91q180 0 290 -95.5t110 -284.5v-432q0 -66 7.5 -127t28.5 -121h-244 q-14 45 -22 94zM800 1424h-140q-120 0 -174 -46t-54 -106q0 -120 160 -120q56 0 113.5 25t94.5 60v187z" />
<glyph unicode="&#xab;" horiz-adv-x="1520" d="M800 220h-208l-404 600v28l404 600h208l-380 -614zM1312 220h-208l-404 600v28l404 600h208l-380 -614z" />
<glyph unicode="&#xac;" horiz-adv-x="1520" d="M1336 1108v-592h-276v356h-872v236h1148z" />
<glyph unicode="&#xad;" horiz-adv-x="1296" d="M1096 988v-220h-896v220h896z" />
<glyph unicode="&#xae;" horiz-adv-x="2288" d="M168 1004q0 218 76 404.5t211 327t311.5 218.5t377.5 78q203 0 379.5 -78t311 -218.5t210 -327t75.5 -404.5q0 -219 -75.5 -407t-210 -328t-311 -218.5t-379.5 -78.5q-201 0 -377.5 78.5t-311.5 218.5t-211 328t-76 407zM336 1004q0 -183 63 -339.5t174.5 -273.5 t258 -182t312.5 -65q168 0 314.5 65t257.5 182t173.5 273.5t62.5 339.5q0 182 -62.5 337.5t-173.5 272t-257.5 181.5t-314.5 65q-166 0 -312.5 -65t-258 -181.5t-174.5 -272t-63 -337.5zM1164 900h-216v-464h-208v1168h388q204 0 324 -87.5t120 -264.5q0 -170 -174 -258 q95 -38 132.5 -113.5t37.5 -172.5v-76q0 -110 24 -176v-20h-212q-15 33 -17.5 99.5t-2.5 96.5v76q0 96 -44 144t-152 48zM948 1084h208q84 0 148 41t64 119q0 99 -54 137.5t-186 38.5h-180v-336z" />
<glyph unicode="&#xaf;" horiz-adv-x="1264" d="M1100 2048v-200h-936v200h936z" />
<glyph unicode="&#xb0;" horiz-adv-x="1280" d="M640 1144q-127 0 -231.5 62t-166.5 166.5t-62 231.5t62 231.5t166.5 166.5t231.5 62t231.5 -62t166.5 -166.5t62 -231.5t-62 -231.5t-166.5 -166.5t-231.5 -62zM640 1344q108 0 184 76t76 184t-76 184t-184 76t-184 -76t-76 -184t76 -184t184 -76z" />
<glyph unicode="&#xb1;" d="M260 904v224h532v408h224v-408h532v-224h-532v-408h-224v408h-532zM260 96v224h1288v-224h-1288z" />
<glyph unicode="&#xb2;" horiz-adv-x="1184" d="M140 1024v156l468 416q105 93 158.5 159.5t53.5 144.5q0 90 -69 143t-171 53q-108 0 -174 -57.5t-66 -150.5h-208q0 171 127 275.5t325 104.5t321 -104t123 -260q0 -123 -75.5 -223.5t-240.5 -244.5l-260 -228v-8h612v-176h-924z" />
<glyph unicode="&#xb3;" horiz-adv-x="1212" d="M604 1008q-138 0 -246.5 46t-172 127t-65.5 187h220q3 -81 78 -130.5t186 -49.5q117 0 192.5 54t75.5 138t-80.5 138t-215.5 54h-100v160h100q111 0 185.5 50t74.5 134q0 78 -63 129t-165 51t-175.5 -50t-76.5 -134h-208q2 106 63.5 186t165 125t231.5 45 q195 0 317.5 -96.5t122.5 -243.5q0 -108 -74 -177t-182 -87v-8q147 -21 225.5 -101t78.5 -191q0 -102 -63 -182.5t-174 -127t-255 -46.5z" />
<glyph unicode="&#xb4;" horiz-adv-x="1400" d="M440 1744l244 464h276l-312 -464h-208z" />
<glyph unicode="&#xb5;" horiz-adv-x="1752" d="M216 -576v2112h236v-908q0 -187 116 -303.5t308 -116.5t308 117t116 303v908h236v-1536h-236v228h-12q-62 -121 -173 -184.5t-239 -63.5t-238.5 63.5t-173.5 184.5h-12v-804h-236z" />
<glyph unicode="&#xb6;" horiz-adv-x="1688" d="M1192 0v1828h-248v-1068h-116q-218 0 -369 83.5t-229 229t-78 331.5q0 184 78 329.5t229 230t369 84.5h612v-2048h-248z" />
<glyph unicode="&#xb7;" horiz-adv-x="784" d="M392 876q-74 0 -127 53t-53 127t53 127t127 53t127 -53t53 -127t-53 -127t-127 -53z" />
<glyph unicode="&#xb8;" horiz-adv-x="752" d="M280 8h196l-16 -80q78 -12 143 -65.5t65 -170.5q0 -129 -106.5 -210.5t-313.5 -81.5l-8 156q93 0 154.5 29.5t61.5 98.5t-51 94t-165 34z" />
<glyph unicode="&#xb9;" horiz-adv-x="848" d="M612 2252v-1228h-212v956h-12q-21 -27 -92 -65.5t-188 -38.5v172q90 2 156 38.5t103 84t41 81.5h204z" />
<glyph unicode="&#xba;" horiz-adv-x="1264" d="M156 1436v108q0 213 128.5 350.5t347.5 137.5q222 0 349 -137.5t127 -350.5v-108q0 -213 -126.5 -348.5t-345.5 -135.5q-222 0 -351 135.5t-129 348.5zM396 1544v-108q0 -123 60 -203.5t180 -80.5q117 0 174.5 80.5t57.5 203.5v108q0 120 -58 202t-178 82 q-117 0 -176.5 -82t-59.5 -202z" />
<glyph unicode="&#xbb;" horiz-adv-x="1520" d="M188 220l380 614l-380 614h208l404 -600v-28l-404 -600h-208zM700 220l380 614l-380 614h208l404 -600v-28l-404 -600h-208z" />
<glyph unicode="&#xbc;" horiz-adv-x="2476" d="M384 0l1408 2048h228l-1408 -2048h-228zM564 2048v-1088h-208v832h-12q-18 -24 -82 -60t-166 -36v168q76 0 135 30t93 73t36 81h204zM1456 196v164l524 728h260v-724h152v-168h-152v-196h-200v196h-584zM2044 364v496h-8l-364 -492v-4h372z" />
<glyph unicode="&#xbd;" horiz-adv-x="2608" d="M384 0l1408 2048h228l-1408 -2048h-228zM564 2048v-1088h-208v832h-12q-18 -24 -82 -60t-166 -36v168q76 0 135 30t93 73t36 81h204zM1652 0v152l428 360q96 81 140 137t44 119q0 78 -61 125t-151 47t-151 -49.5t-61 -130.5h-200q0 153 115 248.5t301 95.5t297 -95.5 t111 -236.5q0 -108 -66 -197.5t-222 -218.5l-220 -180v-8h548v-168h-852z" />
<glyph unicode="&#xbe;" horiz-adv-x="2660" d="M568 0l1408 2048h228l-1408 -2048h-228zM1640 196v164l524 728h260v-724h152v-168h-152v-196h-200v196h-584zM2228 364v496h-8l-364 -492v-4h372zM548 944q-192 0 -318 94t-126 238h212q0 -69 66.5 -114.5t165.5 -45.5t163.5 47.5t64.5 116.5q0 72 -71 116t-185 44h-88 v148h88q99 0 165.5 43.5t66.5 112.5q0 66 -57 111t-147 45t-153 -45.5t-63 -114.5h-204q3 141 121.5 232.5t298.5 91.5t294 -86t114 -218q0 -93 -66 -155t-174 -77v-8q135 -18 207.5 -87.5t72.5 -168.5q0 -138 -125 -229t-323 -91z" />
<glyph unicode="&#xbf;" horiz-adv-x="1428" d="M904 956v-12q-2 -191 -40 -304t-108 -183t-168 -129q-88 -53 -148 -139t-60 -205q0 -147 99.5 -233.5t240.5 -86.5q82 0 158 34t127 107t59 191h252q-8 -170 -88.5 -291t-213 -185t-294.5 -64q-176 0 -306.5 70t-202 192t-71.5 278q0 166 74 284t206 198 q132 82 186.5 181t57.5 285v12h240zM776 1548q74 0 127 -53t53 -127t-53 -127t-127 -53t-127 53t-53 127t53 127t127 53z" />
<glyph unicode="&#xc0;" horiz-adv-x="1904" d="M332 0h-260l752 2048h256l752 -2048h-260l-206 580h-828zM616 800h672l-328 924h-16zM1060 2256h-208l-312 464h276z" />
<glyph unicode="&#xc1;" horiz-adv-x="1904" d="M332 0h-260l752 2048h256l752 -2048h-260l-206 580h-828zM616 800h672l-328 924h-16zM844 2256l244 464h276l-312 -464h-208z" />
<glyph unicode="&#xc2;" horiz-adv-x="1904" d="M332 0h-260l752 2048h256l752 -2048h-260l-206 580h-828zM616 800h672l-328 924h-16zM744 2232l208 280l208 -280h224v16l-324 416h-216l-324 -416v-16h224z" />
<glyph unicode="&#xc3;" horiz-adv-x="1904" d="M332 0h-260l752 2048h256l752 -2048h-260l-206 580h-828zM616 800h672l-328 924h-16zM644 2252l-184 8q0 153 87.5 250.5t216.5 97.5q76 0 130.5 -32t108 -64t125.5 -32q57 0 96.5 44.5t39.5 107.5l180 -16q0 -156 -87.5 -248t-216.5 -92q-69 0 -114 19.5t-80 44.5 t-74 44.5t-96 19.5t-94.5 -44.5t-37.5 -107.5z" />
<glyph unicode="&#xc4;" horiz-adv-x="1904" d="M332 0h-260l752 2048h256l752 -2048h-260l-206 580h-828zM616 800h672l-328 924h-16zM664 2304q-63 0 -111.5 48.5t-48.5 111.5q0 69 48.5 114.5t111.5 45.5q69 0 114.5 -45.5t45.5 -114.5q0 -63 -45.5 -111.5t-114.5 -48.5zM1240 2304q-63 0 -111.5 48.5t-48.5 111.5 q0 69 48.5 114.5t111.5 45.5q69 0 114.5 -45.5t45.5 -114.5q0 -63 -45.5 -111.5t-114.5 -48.5z" />
<glyph unicode="&#xc5;" horiz-adv-x="1904" d="M332 0h-260l752 2048h256l752 -2048h-260l-206 580h-828zM616 800h672l-328 924h-16zM952 2184q-91 0 -166.5 42t-120.5 113t-45 157t45 157t120.5 113t166.5 42q92 0 167 -42t120 -113t45 -157t-45 -157t-120 -113t-167 -42zM952 2336q68 0 116 46.5t48 113.5t-48 113.5 t-116 46.5t-116 -46.5t-48 -113.5t48 -113.5t116 -46.5z" />
<glyph unicode="&#xc6;" horiz-adv-x="2788" d="M72 0l992 2048h1524v-220h-988v-692h924v-220h-924v-696h1004v-220h-1252v580h-735l-273 -580h-272zM720 800h632v1028h-148z" />
<glyph unicode="&#xc7;" horiz-adv-x="2048" d="M1896 1408h-248q-30 142 -115 239t-205 147t-256 50q-186 0 -336.5 -94t-239 -277t-88.5 -449t88.5 -449t239 -277t336.5 -94q136 0 256 50t205 147t115 239h248q-38 -210 -155 -359.5t-290 -229t-379 -79.5q-262 0 -466 128t-321 364t-117 560t117 560t321 364t466 128 q206 0 379 -79.5t290 -229t155 -359.5zM968 -8h196l-16 -80q78 -12 143 -65.5t65 -170.5q0 -129 -106.5 -210.5t-313.5 -81.5l-8 156q93 0 154.5 29.5t61.5 98.5t-51 94t-165 34z" />
<glyph unicode="&#xc8;" horiz-adv-x="1684" d="M248 0v2048h1236v-220h-988v-692h924v-220h-924v-696h1004v-220h-1252zM972 2256h-208l-312 464h276z" />
<glyph unicode="&#xc9;" horiz-adv-x="1684" d="M248 0v2048h1236v-220h-988v-692h924v-220h-924v-696h1004v-220h-1252zM756 2256l244 464h276l-312 -464h-208z" />
<glyph unicode="&#xca;" horiz-adv-x="1684" d="M248 0v2048h1236v-220h-988v-692h924v-220h-924v-696h1004v-220h-1252zM656 2232l208 280l208 -280h224v16l-324 416h-216l-324 -416v-16h224z" />
<glyph unicode="&#xcb;" horiz-adv-x="1684" d="M248 0v2048h1236v-220h-988v-692h924v-220h-924v-696h1004v-220h-1252zM576 2304q-63 0 -111.5 48.5t-48.5 111.5q0 69 48.5 114.5t111.5 45.5q69 0 114.5 -45.5t45.5 -114.5q0 -63 -45.5 -111.5t-114.5 -48.5zM1152 2304q-63 0 -111.5 48.5t-48.5 111.5q0 69 48.5 114.5 t111.5 45.5q69 0 114.5 -45.5t45.5 -114.5q0 -63 -45.5 -111.5t-114.5 -48.5z" />
<glyph unicode="&#xcc;" horiz-adv-x="744" d="M496 2048v-2048h-248v2048h248zM480 2256h-208l-312 464h276z" />
<glyph unicode="&#xcd;" horiz-adv-x="744" d="M496 2048v-2048h-248v2048h248zM264 2256l244 464h276l-312 -464h-208z" />
<glyph unicode="&#xce;" horiz-adv-x="744" d="M496 2048v-2048h-248v2048h248zM164 2232l208 280l208 -280h224v16l-324 416h-216l-324 -416v-16h224z" />
<glyph unicode="&#xcf;" horiz-adv-x="744" d="M496 2048v-2048h-248v2048h248zM84 2304q-63 0 -111.5 48.5t-48.5 111.5q0 69 48.5 114.5t111.5 45.5q69 0 114.5 -45.5t45.5 -114.5q0 -63 -45.5 -111.5t-114.5 -48.5zM660 2304q-63 0 -111.5 48.5t-48.5 111.5q0 69 48.5 114.5t111.5 45.5q69 0 114.5 -45.5 t45.5 -114.5q0 -63 -45.5 -111.5t-114.5 -48.5z" />
<glyph unicode="&#xd0;" horiz-adv-x="2024" d="M-68 964v184h880v-184h-880zM880 0h-632v2048h660q298 0 510 -122.5t325 -351t113 -546.5q0 -320 -114 -550.5t-332 -354t-530 -123.5zM496 220h368q381 0 566.5 216.5t185.5 591.5q0 372 -182 586t-542 214h-396v-1608z" />
<glyph unicode="&#xd1;" horiz-adv-x="2120" d="M1872 2048v-2048h-240l-1116 1608h-20v-1608h-248v2048h240l1120 -1612h20v1612h244zM752 2232l-184 8q0 153 87.5 250.5t216.5 97.5q76 0 130.5 -32t108 -64t125.5 -32q57 0 96.5 44.5t39.5 107.5l180 -16q0 -156 -87.5 -248t-216.5 -92q-69 0 -114 19.5t-80 44.5 t-74 44.5t-96 19.5t-94.5 -44.5t-37.5 -107.5z" />
<glyph unicode="&#xd2;" horiz-adv-x="2144" d="M1976 1024q0 -324 -117 -560t-321 -364t-466 -128t-466 128t-321 364t-117 560t117 560t321 364t466 128t466 -128t321 -364t117 -560zM1736 1024q0 266 -88.5 449t-239 277t-336.5 94t-336.5 -94t-239 -277t-88.5 -449t88.5 -449t239 -277t336.5 -94t336.5 94t239 277 t88.5 449zM1180 2256h-208l-312 464h276z" />
<glyph unicode="&#xd3;" horiz-adv-x="2144" d="M1976 1024q0 -324 -117 -560t-321 -364t-466 -128t-466 128t-321 364t-117 560t117 560t321 364t466 128t466 -128t321 -364t117 -560zM1736 1024q0 266 -88.5 449t-239 277t-336.5 94t-336.5 -94t-239 -277t-88.5 -449t88.5 -449t239 -277t336.5 -94t336.5 94t239 277 t88.5 449zM964 2256l244 464h276l-312 -464h-208z" />
<glyph unicode="&#xd4;" horiz-adv-x="2144" d="M1976 1024q0 -324 -117 -560t-321 -364t-466 -128t-466 128t-321 364t-117 560t117 560t321 364t466 128t466 -128t321 -364t117 -560zM1736 1024q0 266 -88.5 449t-239 277t-336.5 94t-336.5 -94t-239 -277t-88.5 -449t88.5 -449t239 -277t336.5 -94t336.5 94t239 277 t88.5 449zM864 2232l208 280l208 -280h224v16l-324 416h-216l-324 -416v-16h224z" />
<glyph unicode="&#xd5;" horiz-adv-x="2144" d="M1976 1024q0 -324 -117 -560t-321 -364t-466 -128t-466 128t-321 364t-117 560t117 560t321 364t466 128t466 -128t321 -364t117 -560zM1736 1024q0 266 -88.5 449t-239 277t-336.5 94t-336.5 -94t-239 -277t-88.5 -449t88.5 -449t239 -277t336.5 -94t336.5 94t239 277 t88.5 449zM764 2252l-184 8q0 153 87.5 250.5t216.5 97.5q76 0 130.5 -32t108 -64t125.5 -32q57 0 96.5 44.5t39.5 107.5l180 -16q0 -156 -87.5 -248t-216.5 -92q-69 0 -114 19.5t-80 44.5t-74 44.5t-96 19.5t-94.5 -44.5t-37.5 -107.5z" />
<glyph unicode="&#xd6;" horiz-adv-x="2144" d="M1976 1024q0 -324 -117 -560t-321 -364t-466 -128t-466 128t-321 364t-117 560t117 560t321 364t466 128t466 -128t321 -364t117 -560zM1736 1024q0 266 -88.5 449t-239 277t-336.5 94t-336.5 -94t-239 -277t-88.5 -449t88.5 -449t239 -277t336.5 -94t336.5 94t239 277 t88.5 449zM784 2304q-63 0 -111.5 48.5t-48.5 111.5q0 69 48.5 114.5t111.5 45.5q69 0 114.5 -45.5t45.5 -114.5q0 -63 -45.5 -111.5t-114.5 -48.5zM1360 2304q-63 0 -111.5 48.5t-48.5 111.5q0 69 48.5 114.5t111.5 45.5q69 0 114.5 -45.5t45.5 -114.5q0 -63 -45.5 -111.5 t-114.5 -48.5z" />
<glyph unicode="&#xd7;" d="M1392 160l-488 488l-488 -488l-152 152l488 488l-488 488l152 152l488 -488l488 488l152 -152l-488 -488l488 -488z" />
<glyph unicode="&#xd8;" horiz-adv-x="2144" d="M432 -84l-152 104l152 225q-124 137 -194 334.5t-70 444.5q0 324 117 560t321 364t466 128q282 0 497 -148l135 200l152 -104l-147 -218q125 -137 196 -335t71 -447q0 -324 -117 -560t-321 -364t-466 -128q-284 0 -500 151zM1736 1024q0 184 -44 329t-122 248l-866 -1282 q159 -115 368 -115q186 0 336.5 94t239 277t88.5 449zM571 451l865 1281q-157 112 -364 112q-186 0 -336.5 -94t-239 -277t-88.5 -449q0 -183 43.5 -326.5t119.5 -246.5z" />
<glyph unicode="&#xd9;" horiz-adv-x="2088" d="M1592 2048h248v-1356q0 -230 -109 -393t-290 -249t-397 -86t-397 86t-290 249t-109 393v1356h248v-1356q0 -160 76 -270.5t201 -168t271 -57.5t271 57.5t201 168t76 270.5v1356zM1152 2256h-208l-312 464h276z" />
<glyph unicode="&#xda;" horiz-adv-x="2088" d="M1592 2048h248v-1356q0 -230 -109 -393t-290 -249t-397 -86t-397 86t-290 249t-109 393v1356h248v-1356q0 -160 76 -270.5t201 -168t271 -57.5t271 57.5t201 168t76 270.5v1356zM936 2256l244 464h276l-312 -464h-208z" />
<glyph unicode="&#xdb;" horiz-adv-x="2088" d="M1592 2048h248v-1356q0 -230 -109 -393t-290 -249t-397 -86t-397 86t-290 249t-109 393v1356h248v-1356q0 -160 76 -270.5t201 -168t271 -57.5t271 57.5t201 168t76 270.5v1356zM836 2232l208 280l208 -280h224v16l-324 416h-216l-324 -416v-16h224z" />
<glyph unicode="&#xdc;" horiz-adv-x="2088" d="M1592 2048h248v-1356q0 -230 -109 -393t-290 -249t-397 -86t-397 86t-290 249t-109 393v1356h248v-1356q0 -160 76 -270.5t201 -168t271 -57.5t271 57.5t201 168t76 270.5v1356zM756 2304q-63 0 -111.5 48.5t-48.5 111.5q0 69 48.5 114.5t111.5 45.5q69 0 114.5 -45.5 t45.5 -114.5q0 -63 -45.5 -111.5t-114.5 -48.5zM1332 2304q-63 0 -111.5 48.5t-48.5 111.5q0 69 48.5 114.5t111.5 45.5q69 0 114.5 -45.5t45.5 -114.5q0 -63 -45.5 -111.5t-114.5 -48.5z" />
<glyph unicode="&#xdd;" horiz-adv-x="1872" d="M72 2048h284l568 -956h24l568 956h284l-740 -1204v-844h-248v844zM828 2256l244 464h276l-312 -464h-208z" />
<glyph unicode="&#xde;" horiz-adv-x="1776" d="M232 2048h248v-424h396q218 0 369 -79.5t229 -213t78 -295.5t-78 -295.5t-229 -213t-369 -79.5h-396v-448h-248v2048zM480 668h396q213 0 326.5 95t113.5 269t-113.5 273t-326.5 99h-396v-736z" />
<glyph unicode="&#xdf;" horiz-adv-x="1716" d="M248 0v1524q0 171 75.5 295t209 190.5t307.5 66.5q170 0 305 -64t213 -182t78 -282q0 -175 -90 -294.5t-234 -169.5v-20q195 -19 319.5 -152.5t124.5 -347.5q0 -162 -74 -289.5t-208 -201t-314 -73.5h-224v220h228q163 0 259.5 96.5t96.5 247.5q0 158 -107 261t-289 103 h-180v224h128q101 0 174.5 51.5t113.5 134t40 174.5q0 144 -95.5 244t-260.5 100q-155 0 -257.5 -92.5t-102.5 -239.5v-1524h-236z" />
<glyph unicode="&#xe0;" horiz-adv-x="1588" d="M668 -36q-146 0 -265 55.5t-189 161t-70 255.5q0 132 52 214.5t139 129.5t192.5 70.5t212.5 37.5q140 18 227.5 27.5t128 32.5t40.5 80v8q0 148 -80.5 230t-243.5 82q-169 0 -265 -74t-135 -158l-224 80q60 140 160.5 218.5t220 110t235.5 31.5q74 0 170.5 -17.5 t187 -71.5t150.5 -163t60 -292v-1012h-236v208h-12q-24 -50 -80 -107t-149 -97t-227 -40zM704 176q140 0 236.5 55t146 142t49.5 183v216q-15 -18 -65.5 -32.5t-116 -25t-127 -18t-99.5 -12.5q-92 -12 -171.5 -38.5t-128 -79t-48.5 -142.5q0 -123 91.5 -185.5t232.5 -62.5z M928 1744h-208l-312 464h276z" />
<glyph unicode="&#xe1;" horiz-adv-x="1588" d="M668 -36q-146 0 -265 55.5t-189 161t-70 255.5q0 132 52 214.5t139 129.5t192.5 70.5t212.5 37.5q140 18 227.5 27.5t128 32.5t40.5 80v8q0 148 -80.5 230t-243.5 82q-169 0 -265 -74t-135 -158l-224 80q60 140 160.5 218.5t220 110t235.5 31.5q74 0 170.5 -17.5 t187 -71.5t150.5 -163t60 -292v-1012h-236v208h-12q-24 -50 -80 -107t-149 -97t-227 -40zM704 176q140 0 236.5 55t146 142t49.5 183v216q-15 -18 -65.5 -32.5t-116 -25t-127 -18t-99.5 -12.5q-92 -12 -171.5 -38.5t-128 -79t-48.5 -142.5q0 -123 91.5 -185.5t232.5 -62.5z M712 1744l244 464h276l-312 -464h-208z" />
<glyph unicode="&#xe2;" horiz-adv-x="1588" d="M668 -36q-146 0 -265 55.5t-189 161t-70 255.5q0 132 52 214.5t139 129.5t192.5 70.5t212.5 37.5q140 18 227.5 27.5t128 32.5t40.5 80v8q0 148 -80.5 230t-243.5 82q-169 0 -265 -74t-135 -158l-224 80q60 140 160.5 218.5t220 110t235.5 31.5q74 0 170.5 -17.5 t187 -71.5t150.5 -163t60 -292v-1012h-236v208h-12q-24 -50 -80 -107t-149 -97t-227 -40zM704 176q140 0 236.5 55t146 142t49.5 183v216q-15 -18 -65.5 -32.5t-116 -25t-127 -18t-99.5 -12.5q-92 -12 -171.5 -38.5t-128 -79t-48.5 -142.5q0 -123 91.5 -185.5t232.5 -62.5z M612 1720l208 280l208 -280h224v16l-324 416h-216l-324 -416v-16h224z" />
<glyph unicode="&#xe3;" horiz-adv-x="1588" d="M668 -36q-146 0 -265 55.5t-189 161t-70 255.5q0 132 52 214.5t139 129.5t192.5 70.5t212.5 37.5q140 18 227.5 27.5t128 32.5t40.5 80v8q0 148 -80.5 230t-243.5 82q-169 0 -265 -74t-135 -158l-224 80q60 140 160.5 218.5t220 110t235.5 31.5q74 0 170.5 -17.5 t187 -71.5t150.5 -163t60 -292v-1012h-236v208h-12q-24 -50 -80 -107t-149 -97t-227 -40zM704 176q140 0 236.5 55t146 142t49.5 183v216q-15 -18 -65.5 -32.5t-116 -25t-127 -18t-99.5 -12.5q-92 -12 -171.5 -38.5t-128 -79t-48.5 -142.5q0 -123 91.5 -185.5t232.5 -62.5z M512 1720l-184 8q0 153 87.5 250.5t216.5 97.5q76 0 130.5 -32t108 -64t125.5 -32q57 0 96.5 44.5t39.5 107.5l180 -16q0 -156 -87.5 -248t-216.5 -92q-69 0 -114 19.5t-80 44.5t-74 44.5t-96 19.5t-94.5 -44.5t-37.5 -107.5z" />
<glyph unicode="&#xe4;" horiz-adv-x="1588" d="M668 -36q-146 0 -265 55.5t-189 161t-70 255.5q0 132 52 214.5t139 129.5t192.5 70.5t212.5 37.5q140 18 227.5 27.5t128 32.5t40.5 80v8q0 148 -80.5 230t-243.5 82q-169 0 -265 -74t-135 -158l-224 80q60 140 160.5 218.5t220 110t235.5 31.5q74 0 170.5 -17.5 t187 -71.5t150.5 -163t60 -292v-1012h-236v208h-12q-24 -50 -80 -107t-149 -97t-227 -40zM704 176q140 0 236.5 55t146 142t49.5 183v216q-15 -18 -65.5 -32.5t-116 -25t-127 -18t-99.5 -12.5q-92 -12 -171.5 -38.5t-128 -79t-48.5 -142.5q0 -123 91.5 -185.5t232.5 -62.5z M532 1792q-63 0 -111.5 48.5t-48.5 111.5q0 69 48.5 114.5t111.5 45.5q69 0 114.5 -45.5t45.5 -114.5q0 -63 -45.5 -111.5t-114.5 -48.5zM1108 1792q-63 0 -111.5 48.5t-48.5 111.5q0 69 48.5 114.5t111.5 45.5q69 0 114.5 -45.5t45.5 -114.5q0 -63 -45.5 -111.5 t-114.5 -48.5z" />
<glyph unicode="&#xe5;" horiz-adv-x="1588" d="M668 -36q-146 0 -265 55.5t-189 161t-70 255.5q0 132 52 214.5t139 129.5t192.5 70.5t212.5 37.5q140 18 227.5 27.5t128 32.5t40.5 80v8q0 148 -80.5 230t-243.5 82q-169 0 -265 -74t-135 -158l-224 80q60 140 160.5 218.5t220 110t235.5 31.5q74 0 170.5 -17.5 t187 -71.5t150.5 -163t60 -292v-1012h-236v208h-12q-24 -50 -80 -107t-149 -97t-227 -40zM704 176q140 0 236.5 55t146 142t49.5 183v216q-15 -18 -65.5 -32.5t-116 -25t-127 -18t-99.5 -12.5q-92 -12 -171.5 -38.5t-128 -79t-48.5 -142.5q0 -123 91.5 -185.5t232.5 -62.5z M820 1708q-102 0 -184.5 45t-131 122t-48.5 173t48.5 176t131 128t184.5 48t183.5 -48t129 -128t47.5 -176q0 -144 -103.5 -242t-256.5 -98zM820 1860q84 0 138 58t54 130q0 75 -54 135.5t-138 60.5t-138 -60.5t-54 -135.5q0 -72 54 -130t138 -58z" />
<glyph unicode="&#xe6;" horiz-adv-x="2604" d="M1824 -32q-208 0 -360 84.5t-224 227.5h-8q-30 -86 -112.5 -158t-200 -115t-251.5 -43q-146 0 -265 55.5t-189 161t-70 255.5q0 132 52.5 214.5t139 130t192.5 71t212 36.5q140 18 227.5 28t128 33t40.5 79v8q0 147 -81 229.5t-243 82.5q-168 0 -264.5 -74t-135.5 -158 l-224 80q60 140 160.5 218.5t220 110t235.5 31.5q73 0 168 -17t185.5 -69t148.5 -159q82 116 206 180.5t288 64.5q120 0 237 -40t213 -129.5t153 -236.5t57 -362v-100h-1115q8 -246 140.5 -377t338.5 -131q139 0 239 60t145 180l228 -64q-54 -174 -216 -281t-396 -107z M704 176q140 0 236.5 55t146 142t49.5 183v216q-15 -18 -65.5 -32.5t-116 -25t-127 -18t-99.5 -12.5q-92 -12 -171.5 -38.5t-128 -79t-48.5 -142.5q0 -123 91.5 -185.5t232.5 -62.5zM1345 892h875q0 195 -114 323.5t-306 128.5q-135 0 -234 -63.5t-156 -166.5t-65 -222z" />
<glyph unicode="&#xe7;" horiz-adv-x="1572" d="M840 -32q-216 0 -372 102t-240 281t-84 409q0 234 86.5 413.5t242 281t363.5 101.5q162 0 292 -60t213 -168t103 -252h-236q-27 105 -119.5 186.5t-248.5 81.5q-207 0 -333.5 -157.5t-126.5 -418.5q0 -267 125 -427.5t335 -160.5q138 0 236.5 71t131.5 197h236 q-20 -136 -98.5 -244.5t-207 -172t-298.5 -63.5zM728 8h196l-16 -80q78 -12 143 -65.5t65 -170.5q0 -129 -106.5 -210.5t-313.5 -81.5l-8 156q93 0 154.5 29.5t61.5 98.5t-51 94t-165 34z" />
<glyph unicode="&#xe8;" horiz-adv-x="1640" d="M860 -32q-222 0 -382.5 98.5t-247 276t-86.5 413.5t86.5 416.5t242 282t363.5 101.5q120 0 237 -40t213 -129.5t153 -236.5t57 -362v-100h-1115q8 -246 139.5 -377t339.5 -131q139 0 239 60t145 180l228 -64q-54 -174 -216 -281t-396 -107zM381 892h875q0 195 -114 323.5 t-306 128.5q-135 0 -234 -63t-156 -166.5t-65 -222.5zM932 1744h-208l-312 464h276z" />
<glyph unicode="&#xe9;" horiz-adv-x="1640" d="M860 -32q-222 0 -382.5 98.5t-247 276t-86.5 413.5t86.5 416.5t242 282t363.5 101.5q120 0 237 -40t213 -129.5t153 -236.5t57 -362v-100h-1115q8 -246 139.5 -377t339.5 -131q139 0 239 60t145 180l228 -64q-54 -174 -216 -281t-396 -107zM381 892h875q0 195 -114 323.5 t-306 128.5q-135 0 -234 -63t-156 -166.5t-65 -222.5zM716 1744l244 464h276l-312 -464h-208z" />
<glyph unicode="&#xea;" horiz-adv-x="1640" d="M860 -32q-222 0 -382.5 98.5t-247 276t-86.5 413.5t86.5 416.5t242 282t363.5 101.5q120 0 237 -40t213 -129.5t153 -236.5t57 -362v-100h-1115q8 -246 139.5 -377t339.5 -131q139 0 239 60t145 180l228 -64q-54 -174 -216 -281t-396 -107zM381 892h875q0 195 -114 323.5 t-306 128.5q-135 0 -234 -63t-156 -166.5t-65 -222.5zM616 1720l208 280l208 -280h224v16l-324 416h-216l-324 -416v-16h224z" />
<glyph unicode="&#xeb;" horiz-adv-x="1640" d="M860 -32q-222 0 -382.5 98.5t-247 276t-86.5 413.5t86.5 416.5t242 282t363.5 101.5q120 0 237 -40t213 -129.5t153 -236.5t57 -362v-100h-1115q8 -246 139.5 -377t339.5 -131q139 0 239 60t145 180l228 -64q-54 -174 -216 -281t-396 -107zM381 892h875q0 195 -114 323.5 t-306 128.5q-135 0 -234 -63t-156 -166.5t-65 -222.5zM536 1792q-63 0 -111.5 48.5t-48.5 111.5q0 69 48.5 114.5t111.5 45.5q69 0 114.5 -45.5t45.5 -114.5q0 -63 -45.5 -111.5t-114.5 -48.5zM1112 1792q-63 0 -111.5 48.5t-48.5 111.5q0 69 48.5 114.5t111.5 45.5 q69 0 114.5 -45.5t45.5 -114.5q0 -63 -45.5 -111.5t-114.5 -48.5z" />
<glyph unicode="&#xec;" horiz-adv-x="668" d="M216 0v1536h236v-1536h-236zM444 1744h-208l-312 464h276z" />
<glyph unicode="&#xed;" horiz-adv-x="668" d="M216 0v1536h236v-1536h-236zM228 1744l244 464h276l-312 -464h-208z" />
<glyph unicode="&#xee;" horiz-adv-x="668" d="M216 0v1536h236v-1536h-236zM128 1720l208 280l208 -280h224v16l-324 416h-216l-324 -416v-16h224z" />
<glyph unicode="&#xef;" horiz-adv-x="668" d="M216 0v1536h236v-1536h-236zM48 1792q-63 0 -111.5 48.5t-48.5 111.5q0 69 48.5 114.5t111.5 45.5q69 0 114.5 -45.5t45.5 -114.5q0 -63 -45.5 -111.5t-114.5 -48.5zM624 1792q-63 0 -111.5 48.5t-48.5 111.5q0 69 48.5 114.5t111.5 45.5q69 0 114.5 -45.5t45.5 -114.5 q0 -63 -45.5 -111.5t-114.5 -48.5z" />
<glyph unicode="&#xf0;" horiz-adv-x="1632" d="M1328 1948l-281 -136q189 -197 315 -463.5t126 -596.5q0 -248 -84 -423.5t-235 -268t-353 -92.5q-206 0 -357 95t-233 261t-82 380q0 218 82 384t221 259t309 93q116 0 203 -40t147 -100t94 -120h20q-43 120 -126.5 262.5t-229.5 281.5l-356 -172l-68 148l287 139 q-59 44 -126.5 86.5t-144.5 82.5l104 168q91 -47 182 -108t178 -136l340 164zM816 180q146 0 245 68t149 183t50 257q0 130 -45 258t-143 213t-256 85q-146 0 -243 -75t-145 -198t-48 -267q0 -136 45 -255.5t141 -194t250 -74.5z" />
<glyph unicode="&#xf1;" horiz-adv-x="1648" d="M452 924v-924h-236v1536h228v-240h20q54 117 164 188.5t284 71.5q233 0 376.5 -143t143.5 -437v-976h-236v960q0 181 -94 282.5t-258 101.5q-169 0 -280.5 -109.5t-111.5 -310.5zM516 1720l-184 8q0 153 87.5 250.5t216.5 97.5q76 0 130.5 -32t108 -64t125.5 -32 q57 0 96.5 44.5t39.5 107.5l180 -16q0 -156 -87.5 -248t-216.5 -92q-69 0 -114 19.5t-80 44.5t-74 44.5t-96 19.5t-94.5 -44.5t-37.5 -107.5z" />
<glyph unicode="&#xf2;" horiz-adv-x="1680" d="M840 -32q-208 0 -364.5 99t-244 277t-87.5 416q0 240 87.5 419t244 278t364.5 99t364.5 -99t244 -278t87.5 -419q0 -238 -87.5 -416t-244 -277t-364.5 -99zM840 180q158 0 260 81t151 213t49 286t-49 287t-151 215t-260 82t-260 -82t-151 -215t-49 -287t49 -286t151 -213 t260 -81zM948 1744h-208l-312 464h276z" />
<glyph unicode="&#xf3;" horiz-adv-x="1680" d="M840 -32q-208 0 -364.5 99t-244 277t-87.5 416q0 240 87.5 419t244 278t364.5 99t364.5 -99t244 -278t87.5 -419q0 -238 -87.5 -416t-244 -277t-364.5 -99zM840 180q158 0 260 81t151 213t49 286t-49 287t-151 215t-260 82t-260 -82t-151 -215t-49 -287t49 -286t151 -213 t260 -81zM732 1744l244 464h276l-312 -464h-208z" />
<glyph unicode="&#xf4;" horiz-adv-x="1680" d="M840 -32q-208 0 -364.5 99t-244 277t-87.5 416q0 240 87.5 419t244 278t364.5 99t364.5 -99t244 -278t87.5 -419q0 -238 -87.5 -416t-244 -277t-364.5 -99zM840 180q158 0 260 81t151 213t49 286t-49 287t-151 215t-260 82t-260 -82t-151 -215t-49 -287t49 -286t151 -213 t260 -81zM632 1720l208 280l208 -280h224v16l-324 416h-216l-324 -416v-16h224z" />
<glyph unicode="&#xf5;" horiz-adv-x="1680" d="M604 1720l-184 8q0 153 87.5 250.5t216.5 97.5q76 0 130.5 -32t108 -64t125.5 -32q57 0 96.5 44.5t39.5 107.5l180 -16q0 -156 -87.5 -248t-216.5 -92q-69 0 -114 19.5t-80 44.5t-74 44.5t-96 19.5t-94.5 -44.5t-37.5 -107.5zM840 -32q-208 0 -364.5 99t-244 277 t-87.5 416q0 240 87.5 419t244 278t364.5 99t364.5 -99t244 -278t87.5 -419q0 -238 -87.5 -416t-244 -277t-364.5 -99zM840 180q158 0 260 81t151 213t49 286t-49 287t-151 215t-260 82t-260 -82t-151 -215t-49 -287t49 -286t151 -213t260 -81z" />
<glyph unicode="&#xf6;" horiz-adv-x="1680" d="M840 -32q-208 0 -364.5 99t-244 277t-87.5 416q0 240 87.5 419t244 278t364.5 99t364.5 -99t244 -278t87.5 -419q0 -238 -87.5 -416t-244 -277t-364.5 -99zM840 180q158 0 260 81t151 213t49 286t-49 287t-151 215t-260 82t-260 -82t-151 -215t-49 -287t49 -286t151 -213 t260 -81zM552 1792q-63 0 -111.5 48.5t-48.5 111.5q0 69 48.5 114.5t111.5 45.5q69 0 114.5 -45.5t45.5 -114.5q0 -63 -45.5 -111.5t-114.5 -48.5zM1128 1792q-63 0 -111.5 48.5t-48.5 111.5q0 69 48.5 114.5t111.5 45.5q69 0 114.5 -45.5t45.5 -114.5q0 -63 -45.5 -111.5 t-114.5 -48.5z" />
<glyph unicode="&#xf7;" d="M1544 912v-224h-1280v224h1280zM904 1140q-75 0 -127.5 52.5t-52.5 127.5q0 72 52.5 124t127.5 52q72 0 124 -52t52 -124q0 -75 -52 -127.5t-124 -52.5zM904 104q-75 0 -127.5 52.5t-52.5 127.5q0 72 52.5 124t127.5 52q72 0 124 -52t52 -124q0 -75 -52 -127.5 t-124 -52.5z" />
<glyph unicode="&#xf8;" horiz-adv-x="1680" d="M380 -84l-152 104l110 163q-92 104 -143 250.5t-51 326.5q0 240 87.5 419t244 278t364.5 99q203 0 360 -96l100 148l152 -104l-110 -163q92 -105 143 -252.5t51 -328.5q0 -238 -87.5 -416t-244 -277t-364.5 -99q-202 0 -360 96zM840 180q158 0 260 81t151 213t49 286 q0 106 -23 204t-71 176l-603 -894q101 -66 237 -66zM473 383l604 894q-101 67 -237 67q-158 0 -260 -82t-151 -215t-49 -287q0 -106 23 -203t70 -174z" />
<glyph unicode="&#xf9;" horiz-adv-x="1636" d="M1184 628v908h236v-1536h-236v260h-16q-54 -117 -168 -198.5t-288 -81.5q-216 0 -356 143t-140 437v976h236v-960q0 -168 94.5 -268t241.5 -100q88 0 179.5 45t154 138t62.5 237zM928 1744h-208l-312 464h276z" />
<glyph unicode="&#xfa;" horiz-adv-x="1636" d="M1184 628v908h236v-1536h-236v260h-16q-54 -117 -168 -198.5t-288 -81.5q-216 0 -356 143t-140 437v976h236v-960q0 -168 94.5 -268t241.5 -100q88 0 179.5 45t154 138t62.5 237zM712 1744l244 464h276l-312 -464h-208z" />
<glyph unicode="&#xfb;" horiz-adv-x="1636" d="M1184 628v908h236v-1536h-236v260h-16q-54 -117 -168 -198.5t-288 -81.5q-216 0 -356 143t-140 437v976h236v-960q0 -168 94.5 -268t241.5 -100q88 0 179.5 45t154 138t62.5 237zM612 1720l208 280l208 -280h224v16l-324 416h-216l-324 -416v-16h224z" />
<glyph unicode="&#xfc;" horiz-adv-x="1636" d="M1184 628v908h236v-1536h-236v260h-16q-54 -117 -168 -198.5t-288 -81.5q-216 0 -356 143t-140 437v976h236v-960q0 -168 94.5 -268t241.5 -100q88 0 179.5 45t154 138t62.5 237zM532 1792q-63 0 -111.5 48.5t-48.5 111.5q0 69 48.5 114.5t111.5 45.5q69 0 114.5 -45.5 t45.5 -114.5q0 -63 -45.5 -111.5t-114.5 -48.5zM1108 1792q-63 0 -111.5 48.5t-48.5 111.5q0 69 48.5 114.5t111.5 45.5q69 0 114.5 -45.5t45.5 -114.5q0 -63 -45.5 -111.5t-114.5 -48.5z" />
<glyph unicode="&#xfd;" horiz-adv-x="1568" d="M360 -596q-60 0 -107 9.5t-65 18.5l60 208q129 -33 215.5 1.5t148.5 206.5l52 144l-568 1544h256l424 -1224h16l424 1224h256l-660 -1784q-130 -348 -452 -348zM676 1744l244 464h276l-312 -464h-208z" />
<glyph unicode="&#xfe;" horiz-adv-x="1716" d="M216 2048h236v-756h20q26 40 72.5 102.5t134 112t237.5 49.5q194 0 342 -97t231 -275t83 -420q0 -244 -83 -422.5t-230 -276t-339 -97.5q-148 0 -237 49.5t-137 113t-74 105.5h-20v-812h-236v2624zM1336 768q0 162 -49.5 292.5t-149 207t-249.5 76.5q-216 0 -328 -159 t-112 -417q0 -261 113.5 -424.5t326.5 -163.5q148 0 247.5 78.5t150 212t50.5 297.5z" />
<glyph unicode="&#xff;" horiz-adv-x="1568" d="M360 -596q-60 0 -107 9.5t-65 18.5l60 208q129 -33 215.5 1.5t148.5 206.5l52 144l-568 1544h256l424 -1224h16l424 1224h256l-660 -1784q-130 -348 -452 -348zM496 1792q-63 0 -111.5 48.5t-48.5 111.5q0 69 48.5 114.5t111.5 45.5q69 0 114.5 -45.5t45.5 -114.5 q0 -63 -45.5 -111.5t-114.5 -48.5zM1072 1792q-63 0 -111.5 48.5t-48.5 111.5q0 69 48.5 114.5t111.5 45.5q69 0 114.5 -45.5t45.5 -114.5q0 -63 -45.5 -111.5t-114.5 -48.5z" />
<glyph unicode="&#x131;" horiz-adv-x="668" d="M216 0v1536h236v-1536h-236z" />
<glyph unicode="&#x152;" horiz-adv-x="2684" d="M1072 0q-270 0 -473.5 128.5t-317 359t-113.5 536.5q0 308 113.5 538.5t317 358t473.5 127.5h1412v-220h-988v-692h924v-220h-924v-696h1004v-220h-1428zM1248 220v1608h-176q-198 0 -347.5 -100t-233 -281t-83.5 -423q0 -240 83.5 -421t233 -282t347.5 -101h176z" />
<glyph unicode="&#x153;" horiz-adv-x="2788" d="M840 -32q-208 0 -364.5 99t-244 277t-87.5 416q0 240 87.5 419t244 278t364.5 99t364.5 -99t244 -278t87.5 -419q0 -238 -87.5 -416t-244 -277t-364.5 -99zM840 180q158 0 260 81t151 213t49 286t-49 287t-151 215t-260 82t-260 -82t-151 -215t-49 -287t49 -286t151 -213 t260 -81zM2016 -32q-222 0 -382.5 98.5t-247 276t-86.5 413.5t86.5 416.5t242 282t363.5 101.5q120 0 237 -40t213 -129.5t153 -236.5t57 -362v-100h-1115q8 -246 139.5 -377t339.5 -131q139 0 239 60t145 180l228 -64q-54 -174 -216 -281t-396 -107zM1537 892h875 q0 195 -114 323.5t-306 128.5q-135 0 -234 -63t-156 -166.5t-65 -222.5z" />
<glyph unicode="&#x178;" horiz-adv-x="1872" d="M72 2048h284l568 -956h24l568 956h284l-740 -1204v-844h-248v844zM648 2304q-63 0 -111.5 48.5t-48.5 111.5q0 69 48.5 114.5t111.5 45.5q69 0 114.5 -45.5t45.5 -114.5q0 -63 -45.5 -111.5t-114.5 -48.5zM1224 2304q-63 0 -111.5 48.5t-48.5 111.5q0 69 48.5 114.5 t111.5 45.5q69 0 114.5 -45.5t45.5 -114.5q0 -63 -45.5 -111.5t-114.5 -48.5z" />
<glyph unicode="&#x189;" horiz-adv-x="2024" d="M-68 964v184h880v-184h-880zM880 0h-632v2048h660q298 0 510 -122.5t325 -351t113 -546.5q0 -320 -114 -550.5t-332 -354t-530 -123.5zM496 220h368q381 0 566.5 216.5t185.5 591.5q0 372 -182 586t-542 214h-396v-1608z" />
<glyph unicode="&#x237;" horiz-adv-x="668" d="M216 1536h236v-1648q0 -213 -109 -338.5t-331 -125.5h-48v220h44q108 0 158 63.5t50 180.5v1648z" />
<glyph unicode="&#x2c6;" horiz-adv-x="1280" d="M432 1720l208 280l208 -280h224v16l-324 416h-216l-324 -416v-16h224z" />
<glyph unicode="&#x2c7;" horiz-adv-x="1280" d="M432 2152l208 -280l208 280h224v-16l-324 -416h-216l-324 416v16h224z" />
<glyph unicode="&#x2d9;" horiz-adv-x="672" d="M336 1792q-69 0 -118.5 47t-49.5 113t49.5 113t118.5 47t118.5 -47t49.5 -113t-49.5 -113t-118.5 -47z" />
<glyph unicode="&#x2da;" horiz-adv-x="880" d="M440 1708q-102 0 -184.5 45t-131 122t-48.5 173t48.5 176t131 128t184.5 48t183.5 -48t129 -128t47.5 -176q0 -144 -103.5 -242t-256.5 -98zM440 1860q84 0 138 58t54 130q0 75 -54 135.5t-138 60.5t-138 -60.5t-54 -135.5q0 -72 54 -130t138 -58z" />
<glyph unicode="&#x2dc;" horiz-adv-x="1408" d="M396 1720l-184 8q0 153 87.5 250.5t216.5 97.5q76 0 130.5 -32t108 -64t125.5 -32q57 0 96.5 44.5t39.5 107.5l180 -16q0 -156 -87.5 -248t-216.5 -92q-69 0 -114 19.5t-80 44.5t-74 44.5t-96 19.5t-94.5 -44.5t-37.5 -107.5z" />
<glyph unicode="&#x2000;" horiz-adv-x="1404" />
<glyph unicode="&#x2001;" horiz-adv-x="2808" />
<glyph unicode="&#x2002;" horiz-adv-x="1404" />
<glyph unicode="&#x2003;" horiz-adv-x="2808" />
<glyph unicode="&#x2004;" horiz-adv-x="936" />
<glyph unicode="&#x2005;" horiz-adv-x="702" />
<glyph unicode="&#x2006;" horiz-adv-x="468" />
<glyph unicode="&#x2007;" horiz-adv-x="468" />
<glyph unicode="&#x2008;" horiz-adv-x="351" />
<glyph unicode="&#x2009;" horiz-adv-x="561" />
<glyph unicode="&#x200a;" horiz-adv-x="156" />
<glyph unicode="&#x2010;" horiz-adv-x="1296" d="M1096 988v-220h-896v220h896z" />
<glyph unicode="&#x2011;" horiz-adv-x="1296" d="M1096 988v-220h-896v220h896z" />
<glyph unicode="&#x2012;" horiz-adv-x="1296" d="M1096 988v-220h-896v220h896z" />
<glyph unicode="&#x2013;" horiz-adv-x="1408" d="M1408 988v-220h-1408v220h1408z" />
<glyph unicode="&#x2014;" horiz-adv-x="2816" d="M2816 988v-220h-2816v220h2816z" />
<glyph unicode="&#x2018;" horiz-adv-x="560" d="M136 1408v180q0 123 66 265.5t186 238.5l128 -104q-63 -90 -109.5 -187.5t-46.5 -208.5v-184h-224z" />
<glyph unicode="&#x2019;" horiz-adv-x="560" d="M424 2048v-180q0 -123 -66 -265.5t-186 -238.5l-128 104q63 90 109.5 187.5t46.5 208.5v184h224z" />
<glyph unicode="&#x201a;" horiz-adv-x="560" d="M424 256v-180q0 -123 -66 -265.5t-186 -238.5l-128 104q63 90 109.5 187.5t46.5 208.5v184h224z" />
<glyph unicode="&#x201c;" horiz-adv-x="1072" d="M136 1408v180q0 123 66 265.5t186 238.5l128 -104q-63 -90 -109.5 -187.5t-46.5 -208.5v-184h-224zM648 1408v180q0 123 66 265.5t186 238.5l128 -104q-63 -90 -109.5 -187.5t-46.5 -208.5v-184h-224z" />
<glyph unicode="&#x201d;" horiz-adv-x="1072" d="M424 2048v-180q0 -123 -66 -265.5t-186 -238.5l-128 104q63 90 109.5 187.5t46.5 208.5v184h224zM936 2048v-180q0 -123 -66 -265.5t-186 -238.5l-128 104q63 90 109.5 187.5t46.5 208.5v184h224z" />
<glyph unicode="&#x201e;" horiz-adv-x="1072" d="M424 256v-180q0 -123 -66 -265.5t-186 -238.5l-128 104q63 90 109.5 187.5t46.5 208.5v184h224zM936 256v-180q0 -123 -66 -265.5t-186 -238.5l-128 104q63 90 109.5 187.5t46.5 208.5v184h224z" />
<glyph unicode="&#x2022;" horiz-adv-x="1280" d="M640 376q-121 0 -221 59.5t-159.5 159.5t-59.5 221q0 122 59.5 221.5t159.5 159t221 59.5q122 0 221.5 -59.5t159 -159t59.5 -221.5q0 -121 -59.5 -221t-159 -159.5t-221.5 -59.5z" />
<glyph unicode="&#x2026;" horiz-adv-x="2312" d="M388 -16q-74 0 -127 53t-53 127t53 127t127 53t127 -53t53 -127t-53 -127t-127 -53zM1156 -16q-74 0 -127 53t-53 127t53 127t127 53t127 -53t53 -127t-53 -127t-127 -53zM1924 -16q-74 0 -127 53t-53 127t53 127t127 53t127 -53t53 -127t-53 -127t-127 -53z" />
<glyph unicode="&#x202f;" horiz-adv-x="561" />
<glyph unicode="&#x2039;" horiz-adv-x="1008" d="M800 220h-208l-404 600v28l404 600h208l-380 -614z" />
<glyph unicode="&#x203a;" horiz-adv-x="1008" d="M188 220l380 614l-380 614h208l404 -600v-28l-404 -600h-208z" />
<glyph unicode="&#x2044;" horiz-adv-x="772" d="M-432 0l1408 2048h228l-1408 -2048h-228z" />
<glyph unicode="&#x205f;" horiz-adv-x="702" />
<glyph unicode="&#x20ac;" horiz-adv-x="1872" d="M1468 1324l-92 -200h-813q-3 -49 -3 -100t3 -100h733l-92 -200h-612q60 -255 213 -387.5t355 -132.5q132 0 242.5 50.5t197.5 125.5l100 -208q-105 -99 -246 -149.5t-294 -50.5q-308 0 -526 199.5t-287 552.5h-275l72 200h179q-3 49 -3 100t3 100h-251l72 200h203 q69 353 287 552.5t526 199.5q159 0 297.5 -55t246.5 -157l-96 -208q-96 87 -207.5 137.5t-240.5 50.5q-202 0 -355 -132.5t-213 -387.5h876z" />
<glyph unicode="&#x2122;" horiz-adv-x="1712" d="M1166 1312l-222 501v-501h-128v736h156l228 -540l228 540h156v-736h-128v501l-222 -501h-68zM336 1312v624h-224v112h576v-112h-224v-624h-128z" />
<glyph unicode="&#x25fc;" horiz-adv-x="1535" d="M0 1535h1535v-1535h-1535v1535z" />
<glyph horiz-adv-x="1084" d="M128 0v152l428 360q96 81 140 137t44 119q0 78 -61 125t-151 47t-151 -49.5t-61 -130.5h-200q0 153 115 248.5t301 95.5t297 -95.5t111 -236.5q0 -108 -66 -197.5t-222 -218.5l-220 -180v-8h548v-168h-852z" />
<glyph horiz-adv-x="1112" d="M92 196v164l524 728h260v-724h152v-168h-152v-196h-200v196h-584zM680 364v496h-8l-364 -492v-4h372z" />
<glyph horiz-adv-x="772" d="M564 2112v-1088h-208v832h-12q-18 -24 -82 -60t-166 -36v168q76 0 135 30t93 73t36 81h204z" />
<glyph horiz-adv-x="1096" d="M548 1008q-192 0 -318 94t-126 238h212q0 -69 66.5 -114.5t165.5 -45.5t163.5 47.5t64.5 116.5q0 72 -71 116t-185 44h-88v148h88q99 0 165.5 43.5t66.5 112.5q0 66 -57 111t-147 45t-153 -45.5t-63 -114.5h-204q3 141 121.5 232.5t298.5 91.5t294 -86t114 -218 q0 -93 -66 -155t-174 -77v-8q135 -18 207.5 -87.5t72.5 -168.5q0 -138 -125 -229t-323 -91z" />
<glyph horiz-adv-x="1664" d="M544 2280q-63 0 -111.5 48.5t-48.5 111.5q0 69 48.5 114.5t111.5 45.5q69 0 114.5 -45.5t45.5 -114.5q0 -63 -45.5 -111.5t-114.5 -48.5zM1120 2280q-63 0 -111.5 48.5t-48.5 111.5q0 69 48.5 114.5t111.5 45.5q69 0 114.5 -45.5t45.5 -114.5q0 -63 -45.5 -111.5 t-114.5 -48.5z" />
<glyph horiz-adv-x="1264" d="M324 2252l-184 8q0 153 87.5 250.5t216.5 97.5q76 0 130.5 -32t108 -64t125.5 -32q57 0 96.5 44.5t39.5 107.5l180 -16q0 -156 -87.5 -248t-216.5 -92q-69 0 -114 19.5t-80 44.5t-74 44.5t-96 19.5t-94.5 -44.5t-37.5 -107.5z" />
<glyph horiz-adv-x="880" d="M440 2184q-91 0 -166.5 42t-120.5 113t-45 157t45 157t120.5 113t166.5 42q92 0 167 -42t120 -113t45 -157t-45 -157t-120 -113t-167 -42zM440 2336q68 0 116 46.5t48 113.5t-48 113.5t-116 46.5t-116 -46.5t-48 -113.5t48 -113.5t116 -46.5z" />
</font>
</defs>
</svg>
