<?xml version="1.0" standalone="no"?>
<!DOCTYPE svg PUBLIC "-//W3C//DTD SVG 1.1//EN" "http://www.w3.org/Graphics/SVG/1.1/DTD/svg11.dtd" >
<svg xmlns="http://www.w3.org/2000/svg" xmlns:xlink="http://www.w3.org/1999/xlink" version="1.1">
<metadata></metadata>
<defs>
<font id="intermedium_italic" horiz-adv-x="701" >
<font-face units-per-em="2816" ascent="2252" descent="-564" />
<missing-glyph horiz-adv-x="746" />
<glyph horiz-adv-x="0" />
<glyph horiz-adv-x="938" />
<glyph horiz-adv-x="0" />
<glyph unicode="&#x9;" horiz-adv-x="784" />
<glyph unicode=" "  horiz-adv-x="746" />
<glyph unicode="&#x09;" horiz-adv-x="746" />
<glyph unicode="&#xa0;" horiz-adv-x="746" />
<glyph unicode="!" horiz-adv-x="827" d="M790 2048l-268 -1459h-276l215 1459h329zM311 -19q-85 0 -140 58.5t-54 141.5t62.5 139.5t143.5 56.5q81 0 139.5 -58t54.5 -138q-4 -83 -65 -141.5t-141 -58.5z" />
<glyph unicode="&#x22;" horiz-adv-x="1126" d="M640 2048l-120 -729h-248l120 729h248zM1154 2048l-120 -729h-248l120 729h248z" />
<glyph unicode="#" horiz-adv-x="1794" d="M1004 0l90 548h-480l-90 -548h-240l90 548h-297l39 240h297l78 472h-295l39 240h295l90 548h240l-90 -548h480l90 548h240l-90 -548h297l-39 -240h-297l-78 -472h295l-39 -240h-295l-90 -548h-240zM653 788h480l78 472h-480z" />
<glyph unicode="$" horiz-adv-x="1812" d="M646 -256l38 225q-299 23 -451 180.5t-123 416.5h311q-14 -145 75.5 -225t233.5 -99l115 681l-85 24q-235 68 -356 197.5t-87 343.5q28 162 130 287t255.5 201.5t336.5 94.5l39 233h188l-39 -232q272 -23 417 -180t116 -394h-298q1 131 -72.5 208.5t-208.5 96.5 l-108 -642l69 -19q93 -24 189 -65.5t173 -108t115 -165.5t15 -237q-41 -243 -241 -408.5t-521 -188.5l-38 -225h-188zM918 243q162 22 275.5 109t134.5 217q23 129 -67.5 194.5t-236.5 108.5zM893 1210l100 592q-150 -21 -247.5 -101.5t-115.5 -194.5q-15 -86 23 -143.5 t104 -94t136 -58.5z" />
<glyph unicode="%" horiz-adv-x="2332" d="M1202 384l20 108q19 116 84 212.5t168 155t236 58.5q136 0 218.5 -58t113.5 -155t12 -213l-20 -108q-19 -115 -83 -212t-166 -155.5t-236 -58.5q-135 0 -218.5 58.5t-115 155.5t-13.5 212zM368 1556l16 108q19 116 83.5 213t167.5 155t236 58q136 0 218.5 -58t113.5 -155 t12 -213l-16 -108q-20 -116 -84 -213t-165.5 -155t-235.5 -58q-135 0 -218.5 58.5t-115.5 155.5t-12 212zM285 0l1551 2048h242l-1551 -2048h-242zM1455 492l-20 -108q-13 -85 15.5 -155.5t131.5 -70.5q101 0 153 70t65 156l20 108q14 86 -12.5 156t-130.5 70 q-100 0 -154 -70t-68 -156zM618 1664l-16 -108q-16 -86 14 -156t131 -70t152 70t67 156l16 108q14 86 -13 156t-131 70q-100 0 -153 -70t-67 -156z" />
<glyph unicode="&#x26;" horiz-adv-x="1833" d="M665 -29q-205 0 -341.5 74.5t-194.5 204.5t-31 294q28 183 159 309t326 248q-77 118 -121.5 233t-22.5 252q23 142 105 251t208.5 171t282.5 62q158 0 262 -61.5t148.5 -163t23.5 -221.5q-24 -146 -115.5 -257t-233.5 -205l-156 -103l328 -490q53 76 90 167t54 194h270 q-36 -216 -110.5 -356.5t-154.5 -227.5l232 -346h-338l-111 162q-119 -97 -270 -144t-289 -47zM1089 359l-369 540l-60 -40q-135 -89 -195.5 -174.5t-68.5 -132.5q-22 -133 62.5 -230.5t251.5 -97.5q194 0 379 135zM832 1258l140 89q92 55 149 116.5t73 152.5q11 72 -40 138 t-156 66q-107 0 -187 -74.5t-94 -164.5q-12 -78 23.5 -157.5t91.5 -165.5z" />
<glyph unicode="'" horiz-adv-x="612" d="M640 2048l-120 -729h-248l120 729h248z" />
<glyph unicode="(" horiz-adv-x="1064" d="M302 850q62 376 213 692t386 583h274q-90 -99 -178 -243t-164 -315.5t-133.5 -355t-87.5 -361.5q-40 -238 -33.5 -482t52 -453t122.5 -341h-275q-145 267 -192 583.5t16 692.5z" />
<glyph unicode=")" horiz-adv-x="1064" d="M789 849q-62 -376 -213 -692t-386 -583h-274q90 99 178 243t164 315.5t133.5 355t87.5 361.5q40 238 33.5 482t-52 453t-122.5 341h275q145 -267 192 -583.5t-16 -692.5z" />
<glyph unicode="*" horiz-adv-x="1469" d="M646 896l92 422l-392 -229l-77 190l405 193l-348 193l141 190l320 -229l51 422h217l-89 -422l389 229l80 -190l-405 -193l348 -193l-141 -190l-320 229l-54 -422h-217z" />
<glyph unicode="+" horiz-adv-x="1837" d="M682 150l87 525h-526l44 269h526l87 526h269l-87 -526h525l-44 -269h-526l-87 -525h-268z" />
<glyph unicode="," horiz-adv-x="810" d="M510 280l-35 -109q-35 -120 -91.5 -250.5t-112 -242.5t-89.5 -178h-212q22 62 62 167t83.5 235t76.5 266l30 112h288z" />
<glyph unicode="-" horiz-adv-x="1304" d="M1144 995l-43 -259h-909l43 259h909z" />
<glyph unicode="." horiz-adv-x="797" d="M295 -19q-85 0 -140 58.5t-54 141.5t62.5 139.5t143.5 56.5q81 0 139.5 -58t54.5 -138q-4 -83 -65 -141.5t-141 -58.5z" />
<glyph unicode="/" horiz-adv-x="1035" d="M1209 2144l-1064 -2452h-267l1064 2452h267z" />
<glyph unicode="0" horiz-adv-x="1819" d="M777 -34q-355 0 -506 277.5t-69 779.5q83 500 327.5 776.5t596.5 276.5t506 -276.5t71 -776.5q-84 -502 -327.5 -779.5t-598.5 -277.5zM821 233q209 0 360 203t215 587q64 383 -21.5 587t-292.5 204q-206 0 -357.5 -204t-214.5 -587q-64 -384 20.5 -587t290.5 -203z" />
<glyph unicode="1" horiz-adv-x="1274" d="M1129 2048l-340 -2048h-310l271 1631h-17q-33 -45 -155.5 -98.5t-295.5 -53.5l40 254q113 0 203.5 40t157 96t106.5 106.5t52 72.5h288z" />
<glyph unicode="2" horiz-adv-x="1727" d="M69 0l39 224l810 718q130 117 217.5 205.5t137.5 168.5t65 170q26 153 -61.5 242.5t-245.5 89.5q-164 0 -282 -99.5t-147 -264.5h-294q31 187 141.5 327t275 217.5t355.5 77.5q194 0 327.5 -76.5t193.5 -208t32 -296.5q-20 -114 -80.5 -223t-187.5 -243t-347 -323 l-476 -426l-3 -15h921l-43 -265h-1348z" />
<glyph unicode="3" horiz-adv-x="1814" d="M794 -28q-210 0 -363 70.5t-227.5 197.5t-51.5 294h309q-14 -135 81 -215.5t261 -80.5q121 0 226 43t175 122t86 187q23 147 -74.5 239.5t-310.5 92.5h-179l42 252h164q171 0 298 95t152 251q23 134 -50 216t-230 82q-102 0 -198.5 -36.5t-164.5 -104t-85 -161.5h-298 q31 166 142.5 292t273.5 197t346 71q201 0 334.5 -80.5t192 -212t33.5 -283.5q-28 -171 -144 -283.5t-285 -154.5v-13q194 -31 286.5 -170.5t60.5 -334.5q-28 -173 -139 -301.5t-282 -199.5t-381 -71z" />
<glyph unicode="4" horiz-adv-x="1842" d="M94 400l40 250l1117 1398h381l-230 -1386h272l-43 -262h-273l-66 -400h-295l66 400h-969zM1110 662l168 1018h-16l-800 -1002v-16h648z" />
<glyph unicode="5" horiz-adv-x="1746" d="M741 -28q-188 0 -325.5 73t-205.5 200t-48 289h300q-10 -131 82 -216.5t239 -85.5q118 0 219 54.5t169.5 150.5t89.5 219q31 188 -67 311t-282 123q-92 0 -191 -32.5t-167 -83.5l-276 42l287 1032h1126l-43 -265h-869l-161 -573h12q71 59 176 97.5t220 38.5 q187 0 319 -88.5t190.5 -243t24.5 -352.5q-32 -199 -148 -355t-290 -245.5t-381 -89.5z" />
<glyph unicode="6" horiz-adv-x="1790" d="M798 -28q-140 1 -268 51t-219.5 164.5t-125.5 307.5t14 479q89 531 339.5 819t602.5 288q181 0 314 -72t204 -199t67 -293h-296q-4 134 -80 213.5t-223 79.5q-226 0 -392 -195t-228 -560l16 19q101 129 241.5 198.5t298.5 69.5q183 0 317 -89.5t196 -245.5t28 -357 q-32 -191 -143.5 -345.5t-282 -244t-380.5 -88.5zM808 232q120 0 227 60.5t180.5 163t93.5 227.5q19 113 -16 205.5t-114 147.5t-193 55q-121 0 -229.5 -62t-183.5 -164t-94 -222q-18 -110 17.5 -204t115.5 -150.5t196 -56.5z" />
<glyph unicode="7" horiz-adv-x="1630" d="M138 0l1187 1768l4 15h-1034l43 265h1354l-46 -274l-1185 -1774h-323z" />
<glyph unicode="8" horiz-adv-x="1777" d="M769 -28q-218 0 -373 77t-228 210t-45 300q21 126 92.5 233t175.5 178.5t222 91.5v9q-146 38 -214 170.5t-37 300.5q29 156 131.5 276.5t257 189t340.5 68.5q191 0 329.5 -73t205 -199.5t39.5 -286.5q-29 -171 -146.5 -291t-272.5 -155v-9q113 -22 195.5 -97.5 t120.5 -187.5t16 -243q-28 -164 -141 -291t-286 -199t-382 -72zM788 225q197 0 328.5 98t156.5 255q25 158 -73.5 255.5t-273.5 97.5q-123 0 -227.5 -48.5t-173.5 -134t-87 -195.5q-24 -151 70 -239.5t280 -88.5zM945 1178q161 0 277.5 95t142.5 244q26 144 -54.5 225 t-235.5 81q-166 0 -281 -91.5t-140 -240.5q-23 -145 59.5 -229t231.5 -84z" />
<glyph unicode="9" horiz-adv-x="1790" d="M1081 2081q140 -1 267.5 -51t219 -165t125.5 -307.5t-14 -478.5q-88 -531 -338 -819t-603 -288q-182 0 -315 72t-203.5 199.5t-67.5 292.5h297q5 -134 79.5 -214t222.5 -80q227 0 393 195t227 561l-16 -19q-100 -129 -240.5 -199t-299.5 -70q-182 0 -316 89.5t-196 246 t-29 356.5q33 192 144.5 346.5t282 244.5t380.5 88zM1070 1821q-120 0 -227 -60.5t-180 -162.5t-93 -228q-18 -113 16.5 -206t113.5 -147.5t192 -54.5q122 0 230.5 62t183 164.5t93.5 221.5q19 110 -16.5 203.5t-115.5 150.5t-197 57z" />
<glyph unicode=":" horiz-adv-x="797" d="M295 -19q-85 0 -140 58.5t-54 141.5t62.5 139.5t143.5 56.5q81 0 139.5 -58t54.5 -138q-4 -83 -65 -141.5t-141 -58.5zM480 1099q-85 0 -140 58.5t-54 141.5t62.5 139.5t143.5 56.5q81 0 139.5 -58t54.5 -138q-4 -83 -65 -141.5t-141 -58.5z" />
<glyph unicode=";" horiz-adv-x="810" d="M510 280l-35 -109q-35 -120 -91.5 -250.5t-112 -242.5t-89.5 -178h-212q22 62 62 167t83.5 235t76.5 266l30 112h288zM487 1099q-85 0 -140 58.5t-54 141.5t62.5 139.5t143.5 56.5q81 0 139.5 -58t54.5 -138q-4 -83 -65 -141.5t-141 -58.5z" />
<glyph unicode="&#x3c;" horiz-adv-x="1837" d="M242 694l39 224l1433 644l-48 -305l-1046 -443l-2 -17l898 -441l-52 -306z" />
<glyph unicode="=" horiz-adv-x="1837" d="M245 367l43 263h1218l-44 -263h-1217zM345 983l44 263h1217l-44 -263h-1217z" />
<glyph unicode="&#x3e;" horiz-adv-x="1837" d="M1570 694l-1434 -644l52 306l1043 442l2 17l-895 442l48 305l1223 -644z" />
<glyph unicode="?" horiz-adv-x="1480" d="M498 589l5 29q32 182 86.5 290.5t132 175t177.5 122.5q98 56 173 136t92 192q22 133 -54 211.5t-204 78.5q-114 0 -223 -73t-143 -232h-304q37 180 141.5 304.5t253 188.5t316.5 64q184 0 310.5 -68.5t183 -191t29.5 -285.5q-27 -169 -124.5 -286.5t-244.5 -197.5 q-139 -77 -210 -169t-101 -260l-5 -29h-287zM575 -19q-85 0 -140 58.5t-54 141.5t62.5 139.5t143.5 56.5q81 0 139.5 -58t54.5 -138q-4 -83 -65 -141.5t-141 -58.5z" />
<glyph unicode="@" horiz-adv-x="2725" d="M1623 1994q287 0 491 -90t327 -247t166 -360t6 -429q-26 -158 -71 -308.5t-119 -271.5t-186 -194t-273 -76q-86 -3 -162.5 20t-124 74.5t-46.5 131.5h-12q-48 -88 -168 -154.5t-290 -59.5q-250 10 -365.5 200.5t-64.5 498.5q33 197 131 340.5t233.5 226.5t282.5 100 q160 19 269 -28.5t120 -113.5h13l19 112h246l-155 -928q-11 -79 21.5 -134t109.5 -55q137 0 212 152t129 477q43 254 -35.5 454t-269 315t-483.5 115q-320 0 -564 -129t-398.5 -364.5t-206.5 -553.5q-82 -498 138 -766.5t725 -268.5q112 0 222.5 19.5t199 44t132.5 39.5 l36 -219q-68 -29 -175 -57t-229.5 -46t-238.5 -18q-620 0 -898 333t-179 941q65 394 264 680.5t510 441.5t711 155zM1410 1154q-169 0 -282 -120t-142 -293q-19 -121 -3 -227.5t82 -172.5t196 -66q195 0 296 116.5t140 350.5q38 228 -32.5 320t-254.5 92z" />
<glyph unicode="A" horiz-adv-x="1971" d="M270 0h-328l1077 2048h357l397 -2048h-328l-97 542h-800zM682 802h620l-156 874h-16z" />
<glyph unicode="B" horiz-adv-x="1842" d="M97 0l340 2048h750q218 0 349.5 -71.5t181.5 -193t24 -273.5q-32 -192 -150.5 -294t-263.5 -138l-4 -20q100 -5 188 -65.5t134 -171.5t20 -270q-26 -156 -121 -281t-260 -197.5t-403 -72.5h-785zM450 265h446q222 0 333 86t133 215q23 146 -67.5 250.5t-277.5 104.5h-457 zM601 1162h413q156 0 277.5 88t143.5 236q23 128 -51.5 213.5t-258.5 85.5h-422z" />
<glyph unicode="C" horiz-adv-x="2071" d="M2025 1382h-306q-5 199 -132.5 305.5t-316.5 106.5q-181 0 -340 -92t-271 -268t-154 -429q-41 -245 10 -412.5t172.5 -253t292.5 -85.5q201 0 373 105t245 301h310q-67 -203 -205 -358t-327 -242.5t-409 -87.5q-270 0 -461 129.5t-273.5 369.5t-28.5 572 q55 324 210.5 555t380 354.5t485.5 123.5q220 0 388.5 -82t263 -237.5t93.5 -374.5z" />
<glyph unicode="D" horiz-adv-x="2032" d="M769 0h-672l340 2048h675q302 0 499 -125.5t276 -358t25 -555.5q-52 -315 -203.5 -541t-389.5 -347t-550 -121zM451 270h331q351 0 561 202.5t271 573.5q60 355 -76 543.5t-472 188.5h-365z" />
<glyph unicode="E" horiz-adv-x="1698" d="M97 0l340 2048h1284l-44 -266h-975l-104 -624h908l-44 -265h-908l-104 -627h987l-44 -266h-1296z" />
<glyph unicode="F" horiz-adv-x="1650" d="M97 0l340 2048h1270l-44 -266h-961l-104 -624h870l-44 -265h-870l-148 -893h-309z" />
<glyph unicode="G" horiz-adv-x="2109" d="M1714 1401q-25 182 -133 287.5t-311 105.5q-173 0 -331.5 -89t-273 -260.5t-155.5 -419.5q-62 -373 72.5 -572t405.5 -199q164 0 302.5 66t232.5 187t123 286h-506l44 255h806l-41 -233q-41 -259 -182 -448t-350.5 -292t-458.5 -103q-277 0 -465.5 127.5t-266 363.5 t-23.5 560q53 327 210.5 563t386 363t492.5 127q222 0 388 -85.5t258.5 -237.5t92.5 -352h-317z" />
<glyph unicode="H" horiz-adv-x="2090" d="M97 0l340 2048h309l-148 -890h1021l148 890h310l-340 -2048h-310l148 893h-1021l-148 -893h-309z" />
<glyph unicode="I" horiz-adv-x="759" d="M746 2048l-340 -2048h-309l340 2048h309z" />
<glyph unicode="J" horiz-adv-x="1554" d="M1233 2048h308l-242 -1458q-49 -295 -238.5 -456.5t-473.5 -161.5q-176 0 -305.5 63t-191 184t-33.5 293h300q-18 -132 52 -205t203 -73q150 0 251 95.5t131 272.5z" />
<glyph unicode="K" horiz-adv-x="1871" d="M97 0l340 2048h309l-161 -978h25l1020 978h389l-977 -922l640 -1126h-372l-508 915l-288 -279l-108 -636h-309z" />
<glyph unicode="L" horiz-adv-x="1589" d="M97 0l340 2048h309l-296 -1782h928l-44 -266h-1237z" />
<glyph unicode="M" horiz-adv-x="2528" d="M437 2048h375l390 -1592h24l914 1592h375l-340 -2048h-294l247 1482h-19l-850 -1479h-245l-356 1480h-19l-248 -1483h-294z" />
<glyph unicode="N" horiz-adv-x="2103" d="M2090 2048l-340 -2048h-284l-791 1502h-18l-251 -1502h-309l340 2048h286l792 -1504h19l250 1504h306z" />
<glyph unicode="O" horiz-adv-x="2163" d="M2043 1004q-54 -323 -209.5 -554t-379.5 -354.5t-485 -123.5q-270 0 -462 129t-275 369t-28 572q54 323 210 554.5t381 355.5t487 124q269 0 459.5 -129.5t273.5 -369.5t28 -573zM1742 1042q41 245 -9 412.5t-171 253.5t-293 86q-181 0 -340 -91.5t-271 -268t-153 -430.5 q-41 -245 9.5 -412t172 -252.5t292.5 -85.5q182 0 340 91t270 267t153 430z" />
<glyph unicode="P" horiz-adv-x="1797" d="M97 0l340 2048h730q238 0 380.5 -87t196 -237t22.5 -339q-31 -188 -134.5 -339t-275.5 -238.5t-410 -87.5h-420l-120 -720h-309zM570 982h390q227 0 346.5 115t147.5 288q29 175 -52.5 286.5t-310.5 111.5h-388z" />
<glyph unicode="Q" horiz-adv-x="2195" d="M2043 1004q-45 -267 -161 -472.5t-282 -338.5l278 -377h-316l-180 244q-195 -88 -413 -88q-270 0 -462 129t-275 369t-28 572q54 323 210 554.5t381 355.5t487 124q269 0 459.5 -129.5t273.5 -369.5t28 -573zM949 664h304l177 -239q115 100 196.5 255t115.5 362 q41 245 -9 412.5t-171 253.5t-293 86q-181 0 -340 -91.5t-271 -268t-153 -430.5q-41 -245 9.5 -412t172 -252.5t292.5 -85.5q124 0 238 43z" />
<glyph unicode="R" horiz-adv-x="1822" d="M97 0l340 2048h730q356 0 503 -179t100 -463q-34 -205 -153 -356t-320 -221l317 -829h-352l-289 775h-19h-419l-129 -775h-309zM579 1041h393q227 0 342.5 96.5t143.5 268.5q29 176 -55 276.5t-312 100.5h-388z" />
<glyph unicode="S" horiz-adv-x="1812" d="M1462 1498q2 152 -97 231.5t-275 79.5q-189 0 -314 -86t-146 -217q-17 -98 32.5 -159.5t130.5 -97t157 -55.5l192 -52q93 -24 189 -65.5t173 -108t115 -165.5t15 -237q-29 -173 -140.5 -309t-293 -213.5t-422.5 -77.5q-344 0 -521.5 161t-146.5 439h311 q-16 -167 102.5 -248t296.5 -81q197 0 340.5 91.5t167.5 240.5q16 91 -25.5 149t-123.5 96t-188 67l-231 66q-235 68 -356 197.5t-87 343.5q31 177 148.5 309.5t294 205.5t381.5 73q208 0 354 -73.5t216 -204t49 -300.5h-298z" />
<glyph unicode="T" horiz-adv-x="1833" d="M292 1782l44 266h1585l-44 -266h-639l-296 -1782h-308l296 1782h-638z" />
<glyph unicode="U" horiz-adv-x="2077" d="M1755 2048h309l-224 -1355q-39 -231 -175 -393.5t-334.5 -248t-424.5 -85.5q-227 0 -398 85.5t-252.5 248t-42.5 393.5l224 1355h309l-223 -1350q-24 -143 27.5 -243.5t157 -152.5t243.5 -52q137 0 261 52t210 152.5t110 243.5z" />
<glyph unicode="V" horiz-adv-x="1971" d="M616 2048l295 -1668h23l845 1668h334l-1077 -2048h-357l-397 2048h334z" />
<glyph unicode="W" horiz-adv-x="2754" d="M498 0l-228 2048h325l136 -1586h19l678 1586h322l152 -1587h20l660 1587h326l-909 -2048h-311l-175 1534h-16l-687 -1534h-312z" />
<glyph unicode="X" horiz-adv-x="1876" d="M647 2048l358 -801h16l622 801h363l-806 -1024l470 -1024h-357l-360 790h-16l-624 -790h-363l825 1024l-481 1024h353z" />
<glyph unicode="Y" horiz-adv-x="1928" d="M279 2048h351l382 -931h23l687 931h351l-949 -1244l-134 -804h-308l133 804z" />
<glyph unicode="Z" horiz-adv-x="1799" d="M44 0l36 206l1338 1576h-1087l44 266h1464l-33 -206l-1340 -1576h1086l-44 -266h-1464z" />
<glyph unicode="[" horiz-adv-x="1064" d="M122 -426l423 2551h657l-39 -237h-371l-344 -2077h371l-39 -237h-658z" />
<glyph unicode="\" horiz-adv-x="1071" d="M242 2048h279l350 -2356h-279z" />
<glyph unicode="]" horiz-adv-x="1064" d="M969 2125l-423 -2551h-657l39 237h371l344 2077h-371l39 237h658z" />
<glyph unicode="^" horiz-adv-x="1338" d="M166 1120l556 870h296l274 -870h-255l-189 634h-15l-390 -634h-277z" />
<glyph unicode="_" horiz-adv-x="1295" d="M1170 0l-41 -254h-1302l42 254h1301z" />
<glyph unicode="`" horiz-adv-x="1400" d="M1134 1741h-239l-231 461h315z" />
<glyph unicode="a" horiz-adv-x="1603" d="M516 -34q-146 0 -255 54.5t-160.5 159t-27.5 254.5q30 174 132 267t244 134t290 58q140 17 227 28t131.5 34.5t53.5 76.5v7q21 130 -37.5 202.5t-202.5 72.5q-150 0 -251.5 -66t-149.5 -148l-268 64q108 210 300 301t400 91q92 0 191 -21.5t180.5 -79t121.5 -162.5 t12 -273l-169 -1020h-292l36 210h-12q-57 -86 -180 -165t-314 -79zM618 206q125 0 221.5 49t156.5 128.5t75 170.5l33 198q-25 -21 -98 -37t-154 -27t-130 -18q-132 -17 -234.5 -68.5t-121.5 -171.5q-18 -111 53.5 -167.5t198.5 -56.5z" />
<glyph unicode="b" horiz-adv-x="1762" d="M97 0l340 2048h299l-125 -761h18q34 48 93.5 111t155 110.5t237.5 47.5q186 0 315.5 -94t184 -271t13.5 -426q-41 -248 -153.5 -426.5t-273.5 -273.5t-347 -95q-140 0 -220 47t-120 110t-60 112h-25l-40 -239h-292zM518 768q-39 -242 40 -392.5t272 -150.5 q134 0 236 71.5t168 194.5t92 277q24 153 -1 273.5t-103.5 190.5t-213.5 70q-196 0 -323.5 -146.5t-166.5 -387.5z" />
<glyph unicode="c" horiz-adv-x="1599" d="M716 -31q-223 0 -366.5 101.5t-200 280.5t-17.5 410q38 235 155.5 414t295 280t394.5 101q262 0 412 -141.5t136 -374.5h-291q-6 108 -79 186t-216 78q-188 0 -327 -144.5t-178 -391.5q-43 -251 46.5 -398.5t279.5 -147.5q128 0 230.5 70t151.5 194h292 q-43 -149 -143.5 -266t-247 -184t-327.5 -67z" />
<glyph unicode="d" horiz-adv-x="1765" d="M648 -30q-187 0 -316.5 95t-183 273.5t-13.5 426.5q42 249 155 426t274.5 271t347.5 94q143 0 222 -47.5t117.5 -110.5t56.5 -111h18l127 761h299l-340 -2048h-292l40 239h-24q-35 -49 -96 -112t-156.5 -110t-235.5 -47zM749 225q193 0 325 150.5t172 392.5 q40 241 -41.5 387.5t-278.5 146.5q-134 0 -234.5 -70t-164 -190.5t-88.5 -273.5q-25 -154 -1.5 -277t100.5 -194.5t211 -71.5z" />
<glyph unicode="e" horiz-adv-x="1658" d="M731 -31q-226 0 -374 98t-206.5 275.5t-18.5 415.5q39 236 157 416t294.5 281t390.5 101q175 0 317.5 -77.5t212 -247t22.5 -447.5l-17 -106h-1094q-39 -250 59 -356t301 -106q131 0 231.5 55t159.5 164l274 -51q-82 -187 -269.5 -301t-439.5 -114zM453 902h797 q30 176 -55 291.5t-260 115.5q-117 0 -218.5 -60t-171.5 -153.5t-92 -193.5z" />
<glyph unicode="f" horiz-adv-x="1044" d="M1065 1536l-39 -240h-334l-214 -1296h-300l217 1296h-237l39 240h238l30 178q22 144 101 239.5t191 143t233 47.5q91 0 152.5 -14.5t89.5 -26.5l-109 -242q-20 7 -51 15t-78 8q-109 0 -164.5 -54t-74.5 -156l-23 -138h333z" />
<glyph unicode="g" horiz-adv-x="1738" d="M621 -605q-277 0 -418.5 103t-180.5 242l276 106q20 -42 56 -91t107.5 -84t196.5 -35q170 0 297 82t157 260l47 302h-19q-34 -49 -94 -109t-155 -104t-236 -44q-182 0 -313.5 85.5t-188.5 253t-16 412.5q40 245 152.5 420t274 268.5t346.5 93.5q143 0 223.5 -47.5 t119.5 -110.5t57 -111h22l41 249h293l-260 -1570q-32 -196 -144.5 -322.5t-279 -187.5t-361.5 -61zM757 271q192 0 321 134.5t168 372.5q39 233 -44 378.5t-277 145.5q-136 0 -236 -69.5t-162.5 -188t-87.5 -266.5q-37 -226 39.5 -366.5t278.5 -140.5z" />
<glyph unicode="h" horiz-adv-x="1695" d="M523 912l-150 -912h-299l340 2048h295l-126 -762h19q73 125 196.5 197.5t303.5 72.5q236 0 357 -145.5t74 -433.5l-164 -977h-299l156 941q28 169 -44 262.5t-225 93.5q-160 0 -281 -100.5t-153 -284.5z" />
<glyph unicode="i" d="M73 0l256 1536h299l-256 -1536h-299zM540 1776q-77 0 -130.5 52.5t-49.5 125.5q3 74 61 126.5t136 52.5q77 0 130.5 -52.5t49.5 -126.5q-3 -73 -61 -125.5t-136 -52.5z" />
<glyph unicode="j" d="M329 1536h299l-270 -1634q-39 -231 -185.5 -355t-385.5 -121h-58l42 258q14 -1 24.5 -1h23.5q107 0 164 57.5t76 163.5zM534 1773q-77 0 -130.5 52.5t-49.5 125.5q3 74 61 126.5t136 52.5q77 0 130.5 -52.5t49.5 -126.5q-3 -73 -61 -125.5t-136 -52.5z" />
<glyph unicode="k" horiz-adv-x="1567" d="M73 0l340 2048h299l-193 -1162h25l722 650h358l-732 -661l518 -875h-367l-407 693l-173 -148l-91 -545h-299z" />
<glyph unicode="l" d="M712 2048l-340 -2048h-299l340 2048h299z" />
<glyph unicode="m" horiz-adv-x="2488" d="M74 0l256 1536h287l-42 -250h19q70 127 191 198.5t273 71.5t245.5 -72t122.5 -198h16q74 124 207 197t299 73q207 0 318.5 -131.5t67.5 -394.5l-172 -1030h-300l168 1002q25 157 -47.5 226.5t-191.5 69.5q-146 0 -241.5 -89.5t-118.5 -229.5l-165 -979h-297l171 1021 q20 125 -45.5 201t-190.5 76q-85 0 -164.5 -45t-135.5 -124t-73 -182l-158 -947h-299z" />
<glyph unicode="n" horiz-adv-x="1682" d="M523 912l-150 -912h-299l256 1536h287l-42 -250h19q73 123 199.5 196.5t299.5 73.5q233 0 353.5 -146.5t73.5 -432.5l-164 -977h-299l157 941q28 167 -43 261.5t-224 94.5q-157 0 -274 -100.5t-150 -284.5z" />
<glyph unicode="o" horiz-adv-x="1696" d="M729 -31q-220 0 -366 101t-206.5 282t-21.5 422q38 236 154 412t290.5 273t387.5 97q220 0 366 -101t206.5 -282.5t21.5 -424.5q-38 -234 -154.5 -409.5t-290.5 -272.5t-387 -97zM746 220q144 0 251.5 76t176 202t92.5 276q23 145 -0.5 265.5t-100.5 193.5t-215 73 q-144 0 -252 -76.5t-175.5 -203t-92.5 -277.5q-23 -144 0.5 -264t100.5 -192.5t215 -72.5z" />
<glyph unicode="p" horiz-adv-x="1738" d="M-23 -576l352 2112h292l-41 -249h25q34 48 93.5 111t155 110.5t237.5 47.5q186 0 315.5 -94t184 -271t13.5 -426q-41 -248 -153.5 -426.5t-273.5 -273.5t-347 -95q-140 0 -220 47t-120 110t-60 112h-18l-136 -815h-299zM494 768q-39 -242 40 -392.5t272 -150.5 q134 0 236 71.5t168 194.5t92 277q24 153 -1 273.5t-103.5 190.5t-213.5 70q-196 0 -323.5 -146.5t-166.5 -387.5z" />
<glyph unicode="q" horiz-adv-x="1738" d="M1318.28 -576l347.316 2112h-292l-41.4482 -249h-25q-18.1064 48 -56.7461 111t-118.411 110.5q-79.7725 47.5 -221.772 47.5q-186 0 -346.625 -94q-160.624 -94 -273.732 -271q-113.107 -177 -154.555 -426q-41.1172 -248 12.2793 -426.5q53.3955 -178.5 182.939 -273.5 t315.544 -95q140 0 235.562 47t156.423 110t97.085 112h18l-133.859 -815h299zM1246.3 768q-41.1299 -242 -169.963 -392.5t-321.833 -150.5q-134 0 -212.325 71.5t-103.598 194.5q-25.2734 123 -0.28125 277q26.6611 153 91.5605 273.5t166.577 190.5t236.678 70 q196 0 274.992 -146.5q78.9912 -146.5 38.1924 -387.5z" />
<glyph unicode="r" horiz-adv-x="1122" d="M73 0l256 1536h289l-41 -244h16q62 124 179.5 195.5t255.5 71.5q122 0 189 -56l-136 -247q-49 27 -135 27q-155 0 -274.5 -97.5t-145.5 -247.5l-154 -938h-299z" />
<glyph unicode="s" horiz-adv-x="1509" d="M1418 1161l-279 -48q-13 79 -71 142.5t-198 63.5q-129 0 -225.5 -58.5t-110.5 -150.5q-13 -74 35 -119.5t169 -75.5l236 -56q407 -97 354 -421q-23 -137 -119.5 -243t-246.5 -166t-334 -60q-262 0 -407.5 111t-150.5 314l296 44q17 -228 286 -228q149 -1 250.5 63 t115.5 155q12 71 -31.5 118t-152.5 72l-248 57q-410 96 -352 432q23 135 115 236t234 157t314 56q251 0 377 -107t144 -288z" />
<glyph unicode="t" horiz-adv-x="1047" d="M1046 1536l-39 -240h-317l-141 -845q-21 -130 29 -167.5t123 -37.5q36 0 63 5t43 8l16 -247q-30 -10 -80.5 -20.5t-122.5 -11.5q-118 -2 -212.5 42.5t-141.5 136t-24 230.5l150 907h-224l39 240h224l61 368h299l-61 -368h316z" />
<glyph unicode="u" horiz-adv-x="1674" d="M1152 637l150 899h300l-256 -1536h-294l45 266h-16q-72 -123 -203.5 -204.5t-304.5 -81.5q-221 0 -337.5 146.5t-70.5 432.5l164 977h299l-157 -941q-25 -157 46.5 -250t210.5 -93q84 0 174 42t159.5 127.5t90.5 215.5z" />
<glyph unicode="v" horiz-adv-x="1595" d="M1643 1536l-813 -1536h-320l-302 1536h314l192 -1182h16l586 1182h327z" />
<glyph unicode="w" horiz-adv-x="2323" d="M406 0l-196 1536h309l113 -1128h15l490 1128h309l112 -1123h15l487 1123h309l-707 -1536h-305l-128 1109h-23l-496 -1109h-304z" />
<glyph unicode="x" horiz-adv-x="1552" d="M565 1536l240 -598l441 598h327l-607 -768l355 -768h-327l-250 574l-441 -574h-328l606 768l-344 768h328z" />
<glyph unicode="y" horiz-adv-x="1595" d="M154 -597q-69 0 -121 11.5t-73 23.5l111 248q118 -33 202.5 -4t168.5 177l70 127l-304 1550h314l190 -1192h16l588 1192h327l-932 -1760q-96 -179 -233.5 -276t-323.5 -97z" />
<glyph unicode="z" horiz-adv-x="1554" d="M42 0l35 205l1005 1057l4 14h-804l43 260h1178l-36 -218l-973 -1044l-4 -14h828l-43 -260h-1233z" />
<glyph unicode="{" horiz-adv-x="1064" d="M780 -426q-297 0 -417 118.5t-71 425.5l46 288q26 161 -27.5 230.5t-223.5 69.5h-4l48 288h4q170 0 249 69t105 231l46 287q50 308 210 426t457 118l-39 -237q-175 0 -249.5 -77.5t-100.5 -244.5l-62 -364q-19 -120 -93.5 -209.5t-270.5 -126.5l-6 -33q122 -25 181 -73.5 t72.5 -115.5t1.5 -147l-62 -364q-28 -167 21 -244.5t224 -77.5z" />
<glyph unicode="|" horiz-adv-x="960" d="M907 2576l-525 -3181h-258l526 3181h257z" />
<glyph unicode="}" horiz-adv-x="1064" d="M311 2125q297 0 417 -118.5t71 -425.5l-46 -288q-26 -161 27.5 -230.5t223.5 -69.5h4l-48 -288h-4q-170 0 -249 -69t-105 -231l-46 -287q-50 -308 -210 -426t-457 -118l39 237q175 0 249.5 77.5t100.5 244.5l62 364q19 120 93.5 209.5t270.5 126.5l6 33 q-122 25 -181 73.5t-72.5 115.5t-1.5 147l62 364q28 167 -21 244.5t-224 77.5z" />
<glyph unicode="~" horiz-adv-x="1837" d="M177 590q26 174 99 285t175.5 164t215.5 53q100 0 178.5 -42.5t172.5 -138.5q59 -58 96.5 -85t91.5 -27q82 0 140 60t76 180h252q-24 -173 -98 -284.5t-177.5 -164.5t-215.5 -53q-101 0 -178.5 43.5t-169.5 137.5q-60 60 -98.5 86t-91.5 26q-77 0 -136 -55.5t-79 -184.5 h-253z" />
<glyph unicode="&#xa1;" horiz-adv-x="827" d="M37 -519l268 1459h276l-215 -1459h-329zM516 1548q85 0 140 -58.5t54 -141.5t-62.5 -139.5t-143.5 -56.5q-81 0 -139.5 58t-54.5 138q4 83 65 141.5t141 58.5z" />
<glyph unicode="&#xa2;" horiz-adv-x="1599" d="M584 -256l38 230q-191 22 -312.5 127.5t-167.5 275t-10 384.5q35 217 139 387.5t260.5 275.5t350.5 127l38 229h171l-38 -227q228 -22 356 -160t116 -353h-291q-5 93 -60.5 165.5t-162.5 92.5l-176 -1069q103 18 184 84.5t123 172.5h292q-61 -208 -230 -350t-411 -164 l-38 -228h-171zM665 233l175 1060q-153 -36 -262.5 -174t-143.5 -351q-37 -218 25.5 -358.5t205.5 -176.5z" />
<glyph unicode="&#xa3;" horiz-adv-x="1814" d="M1461 0h-1400l44 266h97q55 3 92.5 55t59 122.5t28.5 127.5l31 231h-227l47 266h215l50 374q27 210 136.5 351t265.5 212t322 71q197 0 328 -84.5t178 -221.5t-8 -296l-281 46q26 98 -5 163t-97 98t-147 33q-127 0 -244.5 -90t-151.5 -282l-48 -374h474l-46 -266h-462 l-29 -223q-11 -94 -42.5 -173.5t-88.5 -139.5h953z" />
<glyph unicode="&#xa4;" horiz-adv-x="2075" d="M221 836q24 147 87.5 278t156.5 238l-162 199l200 178l164 -198q116 78 248.5 121.5t270.5 43.5q140 0 260 -45t211 -126l235 204l145 -178l-239 -205q57 -106 78 -235.5t-3 -274.5q-23 -139 -82.5 -264.5t-146.5 -229.5l158 -189l-204 -178l-149 183q-121 -88 -261 -137 t-286 -49t-268.5 48.5t-213.5 134.5l-210 -180l-141 178l216 186q-52 104 -69.5 230.5t5.5 266.5zM453 836q-30 -173 26 -316.5t176.5 -228.5t284.5 -85q163 0 311 85t251.5 228.5t132.5 316.5q30 176 -26.5 318.5t-177 227t-283.5 84.5q-164 0 -312 -84.5t-250.5 -227 t-132.5 -318.5z" />
<glyph unicode="&#xa5;" horiz-adv-x="1566" d="M584 2048l258 -926l564 926h332l-663 -1016h336l-32 -202h-433l-33 -194h434l-33 -202h-434l-73 -434h-308l73 434h-443l33 202h443l33 194h-444l32 202h349l-323 1016h332z" />
<glyph unicode="&#xa6;" horiz-adv-x="822" d="M239 558h274l-157 -942h-274zM760 2048l-157 -938h-273l156 938h274z" />
<glyph unicode="&#xa7;" horiz-adv-x="1591" d="M1446 1556h-276q18 112 -31.5 186t-178.5 74q-116 0 -186 -58.5t-84 -132.5q-15 -84 44.5 -149.5t121.5 -101.5l354 -211q47 -28 110 -83t101.5 -144t11.5 -220q-15 -77 -66.5 -145.5t-121 -117.5t-138.5 -70l-2 -4q128 -130 96 -340q-25 -151 -116 -252t-221.5 -151.5 t-274.5 -50.5q-250 0 -387 141.5t-97 385.5h280q-21 -130 49.5 -199t199.5 -67q100 0 186 47.5t102 145.5q11 68 -14 114.5t-67.5 79t-82.5 57.5h-1l-350 207q-49 28 -112.5 83.5t-102 146t-13.5 221.5q23 114 119 209.5t208 126.5v6q-55 67 -82.5 149.5t-11.5 185.5 q23 131 106 232.5t209 160t277 58.5q242 0 360.5 -146.5t81.5 -373.5zM1168 709q16 75 -26 134t-113 99l-338 203q-37 23 -90.5 2.5t-99 -71.5t-58.5 -121q-15 -82 29 -138.5t114 -98.5l327 -193q35 -21 91 -2t104.5 68t59.5 118z" />
<glyph unicode="&#xa8;" horiz-adv-x="1611" d="M1283 1777q-76 0 -125 57t-36 136q11 68 65.5 112t118.5 44q82 0 129 -56t34 -138q-10 -62 -62.5 -108.5t-123.5 -46.5zM695 1777q-76 0 -124.5 58.5t-36.5 134.5q10 68 65 112t119 44q82 0 129 -56t34 -138q-10 -62 -62.5 -108.5t-123.5 -46.5z" />
<glyph unicode="&#xa9;" horiz-adv-x="2331" d="M220 1004q36 218 143.5 404.5t266.5 327t350 218.5t394 78q204 0 370 -78t278.5 -218.5t158.5 -327t10 -404.5q-36 -219 -143.5 -407t-266.5 -328t-351 -218.5t-396 -78.5q-203 0 -368 78.5t-277.5 218.5t-158.5 328t-10 407zM390 1004q-40 -244 38 -438.5t244 -308 t390 -113.5q170 0 329 65t290.5 182t221 273.5t119.5 339.5q40 242 -38 436t-245 307t-393 113q-168 0 -326.5 -65t-289.5 -181.5t-220.5 -272t-119.5 -337.5zM1404 820h218q-35 -216 -180 -324t-357 -108q-223 0 -329.5 147.5t-67.5 384.5l28 164q39 237 194.5 384.5 t378.5 147.5q212 0 321 -108t72 -324h-215q24 132 -32 190t-178 58q-133 0 -216 -97.5t-110 -250.5l-28 -164q-24 -153 28.5 -250.5t185.5 -97.5q122 0 194 56.5t93 191.5z" />
<glyph unicode="&#xaa;" horiz-adv-x="1300" d="M878 1064q-50 -45 -124 -78.5t-173 -33.5q-166 0 -242.5 85.5t-52.5 226.5q24 153 156.5 236t371.5 83h141l12 69q25 176 -133 176q-91 0 -148 -35t-69 -101l-235 19q24 139 156 230t328 91q182 0 278 -95.5t66 -284.5l-72 -432q-12 -64 -15 -125.5t7 -123.5h-246 q-6 46 -6 93zM928 1423h-142q-120 0 -182.5 -46t-71.5 -106q-19 -120 142 -120q55 0 117 25t105 59z" />
<glyph unicode="&#xab;" horiz-adv-x="1601" d="M759 220h-267l-304 600l2 8h-2l4 20l504 600h267l-482 -612zM1320 220h-267l-304 600l2 8h-2l4 20l504 600h267l-482 -612z" />
<glyph unicode="&#xac;" horiz-adv-x="1558" d="M1417 1108l-18 -108h2l-80 -484h-279l59 356h-883l40 236h1159z" />
<glyph unicode="&#xad;" horiz-adv-x="1304" d="M1144 995l-43 -259h-909l43 259h909z" />
<glyph unicode="&#xae;" horiz-adv-x="2331" d="M220 1004q36 218 143.5 404.5t266.5 327t350 218.5t394 78q204 0 370 -78t278.5 -218.5t158.5 -327t10 -404.5q-36 -219 -143.5 -407t-266.5 -328t-351 -218.5t-396 -78.5q-203 0 -368 78.5t-277.5 218.5t-158.5 328t-10 407zM390 1004q-40 -244 38 -438.5t244 -308 t390 -113.5q170 0 329 65t290.5 182t221 273.5t119.5 339.5q40 242 -38 436t-245 307t-393 113q-168 0 -326.5 -65t-289.5 -181.5t-220.5 -272t-119.5 -337.5zM1206 900h-217l-77 -464h-210l196 1168h391q206 0 312.5 -89t76.5 -266q-26 -165 -209 -251q84 -40 108 -116 t9 -174l-16 -76q-6 -52 -7.5 -98t3.5 -78l-4 -20h-214q-7 26 -2 74.5t10 86.5q3 26 4 35l16 76q15 96 -23 144t-147 48zM1020 1084h201q89 0 162.5 40.5t88.5 119.5q15 99 -33 137.5t-182 38.5h-181z" />
<glyph unicode="&#xaf;" horiz-adv-x="1374" d="M1373 2048l-34 -210h-949l33 210h950z" />
<glyph unicode="&#xb0;" horiz-adv-x="1285" d="M698 1120q-130 0 -226 63.5t-141 170.5t-25 236q20 131 101 238t198.5 170t248.5 63q129 0 226 -63.5t143.5 -170t23.5 -237.5q-22 -129 -104 -235.5t-199 -170.5t-246 -64zM736 1348q100 0 183 71t100 171q17 101 -42 172t-159 71q-101 0 -184 -71t-100 -172 q-17 -100 42 -171t160 -71z" />
<glyph unicode="&#xb1;" horiz-adv-x="1837" d="M278 906l43 259h529l64 387h269l-64 -387h530l-43 -259h-530l-64 -388h-269l64 388h-529zM142 90l42 262h1328l-42 -262h-1328z" />
<glyph unicode="&#xb2;" horiz-adv-x="1183" d="M174 1024l28 178l545 407q116 87 179.5 148.5t75.5 134.5q14 84 -42 132.5t-155 48.5q-96 0 -171 -51.5t-90 -143.5h-240q28 173 173 281.5t351 108.5q212 0 317 -111t81 -269q-12 -77 -52.5 -145.5t-122.5 -143t-218 -169.5l-271 -196l-1 -9h587l-32 -201h-942z" />
<glyph unicode="&#xb3;" horiz-adv-x="1219" d="M659 1008q-220 0 -345.5 101.5t-101.5 262.5h246q-10 -73 50 -116t160 -43q113 0 196 52.5t97 129.5q14 80 -51 122.5t-192 42.5h-115l27 182h109q110 0 188 52t90 120q13 74 -28.5 116.5t-145.5 42.5q-92 0 -177 -44t-99 -120h-237q20 109 95.5 189.5t186.5 125 t237 44.5q213 0 321 -105.5t84 -252.5q-18 -107 -96.5 -166.5t-203.5 -79.5v-9q135 -19 205.5 -99.5t52.5 -197.5q-26 -159 -181.5 -254.5t-371.5 -95.5z" />
<glyph unicode="&#xb4;" horiz-adv-x="1400" d="M586 1741l312 461h315l-388 -461h-239z" />
<glyph unicode="&#xb5;" horiz-adv-x="1794" d="M-22 -570l351 2106h299l-150 -899q-28 -170 64 -277.5t270 -107.5q179 0 305.5 107.5t153.5 277.5l151 899h299l-256 -1536h-294l39 225h-12q-77 -113 -192 -174t-240 -61q-121 0 -215.5 61t-132.5 174h-12l-134 -795h-294z" />
<glyph unicode="&#xb6;" horiz-adv-x="1698" d="M1066 0l298 1792h-248l-170 -1032h-116q-220 0 -359 83.5t-194.5 229t-25.5 331.5q32 184 135 329.5t269.5 230t386.5 84.5h643l-340 -2048h-279z" />
<glyph unicode="&#xb7;" horiz-adv-x="802" d="M337 826q-85 0 -140 58.5t-54 141.5t62.5 139.5t143.5 56.5q81 0 139.5 -58t54.5 -138q-4 -83 -65 -141.5t-141 -58.5z" />
<glyph unicode="&#xb8;" horiz-adv-x="853" d="M206 8h196l-32 -82q86 -13 141.5 -69.5t34.5 -169.5q-21 -136 -152 -219.5t-353 -83.5l23 167q104 0 173 30t81 97t-33.5 94.5t-155.5 37.5z" />
<glyph unicode="&#xb9;" horiz-adv-x="865" d="M886 2252l-205 -1228h-242l155 923h-12q-24 -28 -102.5 -62t-191.5 -33l27 196q89 1 161 36.5t117.5 83t54.5 84.5h238z" />
<glyph unicode="&#xba;" horiz-adv-x="1298" d="M280 1436l16 107q24 143 101 253t195 173t265 63q224 0 330.5 -137.5t70.5 -351.5l-16 -107q-36 -213 -186.5 -349t-371.5 -136q-224 0 -332 136t-72 349zM538 1543l-16 -107q-21 -123 26.5 -203.5t168.5 -80.5q118 0 189.5 80.5t92.5 203.5l16 107q21 120 -24 202.5 t-166 82.5q-118 0 -192 -82.5t-95 -202.5z" />
<glyph unicode="&#xbb;" horiz-adv-x="1604" d="M81 220l482 612l-278 616h267l304 -600l-2 -8h2l-4 -20l-504 -600h-267zM645 220l482 612l-278 616h267l304 -600l-2 -8h2l-4 -20l-504 -600h-267z" />
<glyph unicode="&#xbc;" horiz-adv-x="2433" d="M296 0l1551 2048h242l-1551 -2048h-242zM794 2048l-180 -1088h-230l137 805h-12q-24 -25 -91 -55.5t-173 -29.5l27 186q77 -1 141.5 28.5t105.5 72.5t48 81h227zM1290 189l31 183l641 716h290l-118 -712h150l-26 -187h-155l-31 -189h-226l34 189h-590zM1915 376l77 461 h-6l-427 -455v-6h356z" />
<glyph unicode="&#xbd;" horiz-adv-x="2541" d="M296 0l1551 2048h242l-1551 -2048h-242zM794 2048l-180 -1088h-230l137 805h-12q-24 -25 -91 -55.5t-173 -29.5l27 186q77 -1 141.5 28.5t105.5 72.5t48 81h227zM1450 0l31 168l494 354q95 69 153.5 123t69.5 117q12 71 -37.5 115t-138.5 44q-84 0 -150 -44.5t-81 -124.5 h-225q24 155 156.5 253.5t323.5 98.5t287 -100.5t75 -246.5q-15 -101 -92.5 -192.5t-263.5 -211.5l-231 -156l-1 -9h526l-31 -188h-865z" />
<glyph unicode="&#xbe;" horiz-adv-x="2664" d="M528 0l1551 2048h242l-1551 -2048h-242zM1521 189l31 183l641 716h290l-118 -712h150l-26 -187h-155l-31 -189h-226l34 189h-590zM2146 376l77 461h-6l-427 -455v-6h356zM592 944q-128 0 -227.5 40.5t-150.5 115t-34 176.5h232q-10 -64 45.5 -102t139.5 -38q99 0 173 48 t85 113q11 64 -48 98.5t-166 34.5h-104l23 168h95q95 0 166.5 43t83.5 113q11 56 -28.5 91.5t-123.5 35.5q-87 0 -159.5 -39.5t-84.5 -101.5h-222q15 95 82.5 168t169 114.5t219.5 41.5q198 0 294.5 -97.5t75.5 -225.5q-15 -98 -93 -150t-179 -64v-8q129 -19 190 -91.5 t44 -180.5q-14 -85 -83.5 -153.5t-177 -109t-237.5 -40.5z" />
<glyph unicode="&#xbf;" horiz-adv-x="1480" d="M981 937l-5 -29q-32 -182 -86.5 -290.5t-132 -175t-177.5 -122.5q-98 -56 -173 -136t-92 -192q-22 -133 54 -211.5t204 -78.5q114 0 223 73t143 232h304q-37 -180 -141.5 -304.5t-253 -188.5t-316.5 -64q-184 0 -310.5 68.5t-183 191t-29.5 285.5q27 169 124.5 286.5 t244.5 197.5q139 77 210 169t101 260l5 29h287zM904 1545q85 0 140 -58.5t54 -141.5t-62.5 -139.5t-143.5 -56.5q-81 0 -139.5 58t-54.5 138q4 83 65 141.5t141 58.5z" />
<glyph unicode="&#xc0;" horiz-adv-x="1971" d="M270 0h-328l1077 2048h357l397 -2048h-328l-97 542h-800zM682 802h620l-156 874h-16zM1356 2253h-239l-231 461h315z" />
<glyph unicode="&#xc1;" horiz-adv-x="1971" d="M270 0h-328l1077 2048h357l397 -2048h-328l-97 542h-800zM682 802h620l-156 874h-16zM1111 2253l312 461h315l-388 -461h-239z" />
<glyph unicode="&#xc2;" horiz-adv-x="1971" d="M270 0h-328l1077 2048h357l397 -2048h-328l-97 542h-800zM682 802h620l-156 874h-16zM1023.12 2232l250.739 268l160.261 -268h271l2.9668 15l-280.607 424h-249l-422.393 -424l-2.9668 -15h270z" />
<glyph unicode="&#xc3;" horiz-adv-x="1971" d="M270 0h-328l1077 2048h357l397 -2048h-328l-97 542h-800zM682 802h620l-156 874h-16zM931 2252l-198 6q26 166 132 265t237 99q82 0 133.5 -33.5t98 -67.5t113.5 -34q57 0 101 44t53 109l195 -13q-27 -167 -133 -262.5t-238 -96.5q-70 0 -113 20.5t-74 47.5t-65.5 47.5 t-87.5 20.5q-55 0 -98.5 -43.5t-55.5 -108.5z" />
<glyph unicode="&#xc4;" horiz-adv-x="1971" d="M270 0h-328l1077 2048h357l397 -2048h-328l-97 542h-800zM682 802h620l-156 874h-16zM1551 2289q-76 0 -125 57t-36 136q11 68 65.5 112t118.5 44q82 0 129 -56t34 -138q-10 -62 -62.5 -108.5t-123.5 -46.5zM963 2289q-76 0 -124.5 58.5t-36.5 134.5q10 68 65 112t119 44 q82 0 129 -56t34 -138q-10 -62 -62.5 -108.5t-123.5 -46.5z" />
<glyph unicode="&#xc5;" horiz-adv-x="1971" d="M270 0h-328l1077 2048h357l397 -2048h-328l-97 542h-800zM682 802h620l-156 874h-16zM1220 2175q-134 0 -216 91.5t-62 219.5q14 86 69.5 157t136.5 113t172 42t160.5 -41.5t103.5 -112.5t18 -158q-25 -135 -129.5 -223t-252.5 -88zM1246 2334q63 0 119 45.5t64 106.5 q9 68 -27.5 110t-107.5 42q-61 0 -114.5 -46t-64.5 -106q-11 -64 27 -108t104 -44z" />
<glyph unicode="&#xc6;" horiz-adv-x="2826" d="M-58 0l1294 2048h1613l-44 -266h-975l-104 -624h908l-44 -265h-908l-104 -627h987l-44 -266h-1296l90 542h-697l-336 -542h-340zM779 802h580l159 957h-147z" />
<glyph unicode="&#xc7;" horiz-adv-x="2071" d="M2025 1382h-306q-5 199 -132.5 305.5t-316.5 106.5q-181 0 -340 -92t-271 -268t-154 -429q-41 -245 10 -412.5t172.5 -253t292.5 -85.5q201 0 373 105t245 301h310q-67 -203 -205 -358t-327 -242.5t-409 -87.5q-270 0 -461 129.5t-273.5 369.5t-28.5 572 q55 324 210.5 555t380 354.5t485.5 123.5q220 0 388.5 -82t263 -237.5t93.5 -374.5zM860 -3h196l-32 -82q86 -13 141.5 -69.5t34.5 -169.5q-21 -136 -152 -219.5t-353 -83.5l23 167q104 0 173 30t81 97t-33.5 94.5t-155.5 37.5z" />
<glyph unicode="&#xc8;" horiz-adv-x="1698" d="M97 0l340 2048h1284l-44 -266h-975l-104 -624h908l-44 -265h-908l-104 -627h987l-44 -266h-1296zM1237 2253h-239l-231 461h315z" />
<glyph unicode="&#xc9;" horiz-adv-x="1698" d="M97 0l340 2048h1284l-44 -266h-975l-104 -624h908l-44 -265h-908l-104 -627h987l-44 -266h-1296zM992 2253l312 461h315l-388 -461h-239z" />
<glyph unicode="&#xca;" horiz-adv-x="1698" d="M97 0l340 2048h1284l-44 -266h-975l-104 -624h908l-44 -265h-908l-104 -627h987l-44 -266h-1296zM904.121 2232l250.739 268l160.261 -268h271l2.9668 15l-280.607 424h-249l-422.393 -424l-2.9668 -15h270z" />
<glyph unicode="&#xcb;" horiz-adv-x="1698" d="M97 0l340 2048h1284l-44 -266h-975l-104 -624h908l-44 -265h-908l-104 -627h987l-44 -266h-1296zM1432 2289q-76 0 -125 57t-36 136q11 68 65.5 112t118.5 44q82 0 129 -56t34 -138q-10 -62 -62.5 -108.5t-123.5 -46.5zM844 2289q-76 0 -124.5 58.5t-36.5 134.5 q10 68 65 112t119 44q82 0 129 -56t34 -138q-10 -62 -62.5 -108.5t-123.5 -46.5z" />
<glyph unicode="&#xcc;" horiz-adv-x="759" d="M746 2048l-340 -2048h-309l340 2048h309zM748 2253h-239l-231 461h315z" />
<glyph unicode="&#xcd;" horiz-adv-x="759" d="M746 2048l-340 -2048h-309l340 2048h309zM502 2253l312 461h315l-388 -461h-239z" />
<glyph unicode="&#xce;" horiz-adv-x="759" d="M746 2048l-340 -2048h-309l340 2048h309zM414.121 2232l250.739 268l160.261 -268h271l2.9668 15l-280.607 424h-249l-422.393 -424l-2.9668 -15h270z" />
<glyph unicode="&#xcf;" horiz-adv-x="759" d="M746 2048l-340 -2048h-309l340 2048h309zM942 2289q-76 0 -125 57t-36 136q11 68 65.5 112t118.5 44q82 0 129 -56t34 -138q-10 -62 -62.5 -108.5t-123.5 -46.5zM354 2289q-76 0 -124.5 58.5t-36.5 134.5q10 68 65 112t119 44q82 0 129 -56t34 -138q-10 -62 -62.5 -108.5 t-123.5 -46.5z" />
<glyph unicode="&#xd0;" horiz-adv-x="2032" d="M-11 960l36 207h919l-36 -207h-919zM769 0h-672l340 2048h675q302 0 499 -125.5t276 -358t25 -555.5q-52 -315 -203.5 -541t-389.5 -347t-550 -121zM451 270h331q351 0 561 202.5t271 573.5q60 355 -76 543.5t-472 188.5h-365z" />
<glyph unicode="&#xd1;" horiz-adv-x="2103" d="M2090 2048l-340 -2048h-284l-791 1502h-18l-251 -1502h-309l340 2048h286l792 -1504h19l250 1504h306zM996 2234l-198 6q26 166 132 265t237 99q82 0 133.5 -33.5t98 -67.5t113.5 -34q57 0 101 44t53 109l195 -13q-27 -167 -133 -262.5t-238 -96.5q-70 0 -113 20.5 t-74 47.5t-65.5 47.5t-87.5 20.5q-55 0 -98.5 -43.5t-55.5 -108.5z" />
<glyph unicode="&#xd2;" horiz-adv-x="2163" d="M2043 1004q-54 -323 -209.5 -554t-379.5 -354.5t-485 -123.5q-270 0 -462 129t-275 369t-28 572q54 323 210 554.5t381 355.5t487 124q269 0 459.5 -129.5t273.5 -369.5t28 -573zM1742 1042q41 245 -9 412.5t-171 253.5t-293 86q-181 0 -340 -91.5t-271 -268t-153 -430.5 q-41 -245 9.5 -412t172 -252.5t292.5 -85.5q182 0 340 91t270 267t153 430zM1449 2253h-239l-231 461h315z" />
<glyph unicode="&#xd3;" horiz-adv-x="2163" d="M2043 1004q-54 -323 -209.5 -554t-379.5 -354.5t-485 -123.5q-270 0 -462 129t-275 369t-28 572q54 323 210 554.5t381 355.5t487 124q269 0 459.5 -129.5t273.5 -369.5t28 -573zM1742 1042q41 245 -9 412.5t-171 253.5t-293 86q-181 0 -340 -91.5t-271 -268t-153 -430.5 q-41 -245 9.5 -412t172 -252.5t292.5 -85.5q182 0 340 91t270 267t153 430zM1204 2253l312 461h315l-388 -461h-239z" />
<glyph unicode="&#xd4;" horiz-adv-x="2163" d="M2043 1004q-54 -323 -209.5 -554t-379.5 -354.5t-485 -123.5q-270 0 -462 129t-275 369t-28 572q54 323 210 554.5t381 355.5t487 124q269 0 459.5 -129.5t273.5 -369.5t28 -573zM1742 1042q41 245 -9 412.5t-171 253.5t-293 86q-181 0 -340 -91.5t-271 -268t-153 -430.5 q-41 -245 9.5 -412t172 -252.5t292.5 -85.5q182 0 340 91t270 267t153 430zM1116.12 2232l250.739 268l160.261 -268h271l2.9668 15l-280.607 424h-249l-422.393 -424l-2.9668 -15h270z" />
<glyph unicode="&#xd5;" horiz-adv-x="2163" d="M2043 1004q-54 -323 -209.5 -554t-379.5 -354.5t-485 -123.5q-270 0 -462 129t-275 369t-28 572q54 323 210 554.5t381 355.5t487 124q269 0 459.5 -129.5t273.5 -369.5t28 -573zM1742 1042q41 245 -9 412.5t-171 253.5t-293 86q-181 0 -340 -91.5t-271 -268t-153 -430.5 q-41 -245 9.5 -412t172 -252.5t292.5 -85.5q182 0 340 91t270 267t153 430zM1024 2252l-198 6q26 166 132 265t237 99q82 0 133.5 -33.5t98 -67.5t113.5 -34q57 0 101 44t53 109l195 -13q-27 -167 -133 -262.5t-238 -96.5q-70 0 -113 20.5t-74 47.5t-65.5 47.5t-87.5 20.5 q-55 0 -98.5 -43.5t-55.5 -108.5z" />
<glyph unicode="&#xd6;" horiz-adv-x="2163" d="M2043 1004q-54 -323 -209.5 -554t-379.5 -354.5t-485 -123.5q-270 0 -462 129t-275 369t-28 572q54 323 210 554.5t381 355.5t487 124q269 0 459.5 -129.5t273.5 -369.5t28 -573zM1742 1042q41 245 -9 412.5t-171 253.5t-293 86q-181 0 -340 -91.5t-271 -268t-153 -430.5 q-41 -245 9.5 -412t172 -252.5t292.5 -85.5q182 0 340 91t270 267t153 430zM1644 2289q-76 0 -125 57t-36 136q11 68 65.5 112t118.5 44q82 0 129 -56t34 -138q-10 -62 -62.5 -108.5t-123.5 -46.5zM1056 2289q-76 0 -124.5 58.5t-36.5 134.5q10 68 65 112t119 44 q82 0 129 -56t34 -138q-10 -62 -62.5 -108.5t-123.5 -46.5z" />
<glyph unicode="&#xd7;" horiz-adv-x="1837" d="M1295 137l-401 480l-560 -480l-159 189l561 481l-400 479l219 190l401 -481l561 481l158 -190l-561 -481l400 -479z" />
<glyph unicode="&#xd8;" horiz-adv-x="2166" d="M452 -89l-162 114l114 159q-136 137 -191.5 354.5t-8.5 500.5q54 323 210 554.5t381 355.5t487 124q229 0 404 -96l112 156l162 -114l-116 -161q136 -138 191 -356t8 -501q-54 -323 -209.5 -554t-379.5 -354.5t-485 -123.5q-231 0 -407 96zM586 438l927 1297 q-105 56 -244 56q-181 0 -340 -91.5t-271 -268t-153 -430.5q-31 -186 -8.5 -327t89.5 -236zM1742 1039q31 186 8.5 327.5t-88.5 236.5l-927 -1297q106 -55 244 -55q182 0 340 91t270 267t153 430z" />
<glyph unicode="&#xd9;" horiz-adv-x="2077" d="M1755 2048h309l-224 -1355q-39 -231 -175 -393.5t-334.5 -248t-424.5 -85.5q-227 0 -398 85.5t-252.5 248t-42.5 393.5l224 1355h309l-223 -1350q-24 -143 27.5 -243.5t157 -152.5t243.5 -52q137 0 261 52t210 152.5t110 243.5zM1409 2253h-239l-231 461h315z" />
<glyph unicode="&#xda;" horiz-adv-x="2077" d="M1755 2048h309l-224 -1355q-39 -231 -175 -393.5t-334.5 -248t-424.5 -85.5q-227 0 -398 85.5t-252.5 248t-42.5 393.5l224 1355h309l-223 -1350q-24 -143 27.5 -243.5t157 -152.5t243.5 -52q137 0 261 52t210 152.5t110 243.5zM1164 2253l312 461h315l-388 -461h-239z " />
<glyph unicode="&#xdb;" horiz-adv-x="2077" d="M1755 2048h309l-224 -1355q-39 -231 -175 -393.5t-334.5 -248t-424.5 -85.5q-227 0 -398 85.5t-252.5 248t-42.5 393.5l224 1355h309l-223 -1350q-24 -143 27.5 -243.5t157 -152.5t243.5 -52q137 0 261 52t210 152.5t110 243.5zM1076.12 2232l250.739 268l160.261 -268 h271l2.9668 15l-280.607 424h-249l-422.393 -424l-2.9668 -15h270z" />
<glyph unicode="&#xdc;" horiz-adv-x="2077" d="M1755 2048h309l-224 -1355q-39 -231 -175 -393.5t-334.5 -248t-424.5 -85.5q-227 0 -398 85.5t-252.5 248t-42.5 393.5l224 1355h309l-223 -1350q-24 -143 27.5 -243.5t157 -152.5t243.5 -52q137 0 261 52t210 152.5t110 243.5zM1604 2289q-76 0 -125 57t-36 136 q11 68 65.5 112t118.5 44q82 0 129 -56t34 -138q-10 -62 -62.5 -108.5t-123.5 -46.5zM1016 2289q-76 0 -124.5 58.5t-36.5 134.5q10 68 65 112t119 44q82 0 129 -56t34 -138q-10 -62 -62.5 -108.5t-123.5 -46.5z" />
<glyph unicode="&#xdd;" horiz-adv-x="1928" d="M279 2048h351l382 -931h23l687 931h351l-949 -1244l-134 -804h-308l133 804zM1089 2253l312 461h315l-388 -461h-239z" />
<glyph unicode="&#xde;" horiz-adv-x="1814" d="M425 2048h309l-68 -408h364q228 0 372.5 -80.5t204 -216.5t30.5 -304q-27 -168 -131 -304t-274.5 -216t-398.5 -80h-366l-73 -439h-309zM510 697h365q203 0 321.5 91.5t145.5 246.5q26 156 -63 251.5t-292 95.5h-364z" />
<glyph unicode="&#xdf;" horiz-adv-x="1767" d="M97 0l251 1518q29 174 129.5 299t253.5 192t339 67q181 0 314.5 -63t198.5 -183t39 -291q-26 -175 -132.5 -289t-255.5 -161l-4 -21q194 -17 295 -152t65 -352q-29 -170 -127.5 -297t-249.5 -197t-336 -70h-239l43 262h219q155 0 261.5 88t128.5 228q23 146 -62.5 238.5 t-256.5 92.5h-173l42 260h121q92 0 166.5 46t123.5 120.5t63 158.5q22 134 -51.5 225t-228.5 91q-149 0 -258 -86t-132 -226l-248 -1498h-299z" />
<glyph unicode="&#xe0;" horiz-adv-x="1603" d="M516 -34q-146 0 -255 54.5t-160.5 159t-27.5 254.5q30 174 132 267t244 134t290 58q140 17 227 28t131.5 34.5t53.5 76.5v7q21 130 -37.5 202.5t-202.5 72.5q-150 0 -251.5 -66t-149.5 -148l-268 64q108 210 300 301t400 91q92 0 191 -21.5t180.5 -79t121.5 -162.5 t12 -273l-169 -1020h-292l36 210h-12q-57 -86 -180 -165t-314 -79zM618 206q125 0 221.5 49t156.5 128.5t75 170.5l33 198q-25 -21 -98 -37t-154 -27t-130 -18q-132 -17 -234.5 -68.5t-121.5 -171.5q-18 -111 53.5 -167.5t198.5 -56.5zM1108 1741h-239l-231 461h315z" />
<glyph unicode="&#xe1;" horiz-adv-x="1603" d="M516 -34q-146 0 -255 54.5t-160.5 159t-27.5 254.5q30 174 132 267t244 134t290 58q140 17 227 28t131.5 34.5t53.5 76.5v7q21 130 -37.5 202.5t-202.5 72.5q-150 0 -251.5 -66t-149.5 -148l-268 64q108 210 300 301t400 91q92 0 191 -21.5t180.5 -79t121.5 -162.5 t12 -273l-169 -1020h-292l36 210h-12q-57 -86 -180 -165t-314 -79zM618 206q125 0 221.5 49t156.5 128.5t75 170.5l33 198q-25 -21 -98 -37t-154 -27t-130 -18q-132 -17 -234.5 -68.5t-121.5 -171.5q-18 -111 53.5 -167.5t198.5 -56.5zM863 1741l312 461h315l-388 -461h-239 z" />
<glyph unicode="&#xe2;" horiz-adv-x="1603" d="M516 -34q-146 0 -255 54.5t-160.5 159t-27.5 254.5q30 174 132 267t244 134t290 58q140 17 227 28t131.5 34.5t53.5 76.5v7q21 130 -37.5 202.5t-202.5 72.5q-150 0 -251.5 -66t-149.5 -148l-268 64q108 210 300 301t400 91q92 0 191 -21.5t180.5 -79t121.5 -162.5 t12 -273l-169 -1020h-292l36 210h-12q-57 -86 -180 -165t-314 -79zM618 206q125 0 221.5 49t156.5 128.5t75 170.5l33 198q-25 -21 -98 -37t-154 -27t-130 -18q-132 -17 -234.5 -68.5t-121.5 -171.5q-18 -111 53.5 -167.5t198.5 -56.5zM775.121 1720l250.739 268 l160.261 -268h271l2.9668 15l-280.607 424h-249l-422.393 -424l-2.9668 -15h270z" />
<glyph unicode="&#xe3;" horiz-adv-x="1603" d="M516 -34q-146 0 -255 54.5t-160.5 159t-27.5 254.5q30 174 132 267t244 134t290 58q140 17 227 28t131.5 34.5t53.5 76.5v7q21 130 -37.5 202.5t-202.5 72.5q-150 0 -251.5 -66t-149.5 -148l-268 64q108 210 300 301t400 91q92 0 191 -21.5t180.5 -79t121.5 -162.5 t12 -273l-169 -1020h-292l36 210h-12q-57 -86 -180 -165t-314 -79zM618 206q125 0 221.5 49t156.5 128.5t75 170.5l33 198q-25 -21 -98 -37t-154 -27t-130 -18q-132 -17 -234.5 -68.5t-121.5 -171.5q-18 -111 53.5 -167.5t198.5 -56.5zM682 1722l-198 6q26 166 132 265 t237 99q82 0 133.5 -33.5t98 -67.5t113.5 -34q57 0 101 44t53 109l195 -13q-27 -167 -133 -262.5t-238 -96.5q-70 0 -113 20.5t-74 47.5t-65.5 47.5t-87.5 20.5q-55 0 -98.5 -43.5t-55.5 -108.5z" />
<glyph unicode="&#xe4;" horiz-adv-x="1603" d="M516 -34q-146 0 -255 54.5t-160.5 159t-27.5 254.5q30 174 132 267t244 134t290 58q140 17 227 28t131.5 34.5t53.5 76.5v7q21 130 -37.5 202.5t-202.5 72.5q-150 0 -251.5 -66t-149.5 -148l-268 64q108 210 300 301t400 91q92 0 191 -21.5t180.5 -79t121.5 -162.5 t12 -273l-169 -1020h-292l36 210h-12q-57 -86 -180 -165t-314 -79zM618 206q125 0 221.5 49t156.5 128.5t75 170.5l33 198q-25 -21 -98 -37t-154 -27t-130 -18q-132 -17 -234.5 -68.5t-121.5 -171.5q-18 -111 53.5 -167.5t198.5 -56.5zM1303 1777q-76 0 -125 57t-36 136 q11 68 65.5 112t118.5 44q82 0 129 -56t34 -138q-10 -62 -62.5 -108.5t-123.5 -46.5zM715 1777q-76 0 -124.5 58.5t-36.5 134.5q10 68 65 112t119 44q82 0 129 -56t34 -138q-10 -62 -62.5 -108.5t-123.5 -46.5z" />
<glyph unicode="&#xe5;" horiz-adv-x="1603" d="M516 -34q-146 0 -255 54.5t-160.5 159t-27.5 254.5q30 174 132 267t244 134t290 58q140 17 227 28t131.5 34.5t53.5 76.5v7q21 130 -37.5 202.5t-202.5 72.5q-150 0 -251.5 -66t-149.5 -148l-268 64q108 210 300 301t400 91q92 0 191 -21.5t180.5 -79t121.5 -162.5 t12 -273l-169 -1020h-292l36 210h-12q-57 -86 -180 -165t-314 -79zM618 206q125 0 221.5 49t156.5 128.5t75 170.5l33 198q-25 -21 -98 -37t-154 -27t-130 -18q-132 -17 -234.5 -68.5t-121.5 -171.5q-18 -111 53.5 -167.5t198.5 -56.5zM997 1706q-149 0 -241 97t-77 239 q10 94 66.5 172.5t143.5 125.5t186 47q100 0 174.5 -47t112.5 -125.5t28 -172.5t-66 -170.5t-141.5 -121t-185.5 -44.5zM1018 1866q78 0 134 54t64 122q8 70 -37.5 125.5t-123.5 55.5q-79 0 -135 -55.5t-64 -125.5q-8 -68 37.5 -122t124.5 -54z" />
<glyph unicode="&#xe6;" horiz-adv-x="2594" d="M1679 -31q-201 0 -337 80.5t-187 220.5h-10q-47 -86 -143 -155t-220.5 -109t-257.5 -40q-226 0 -357 121t-94 347q30 174 132 267t244 134t290 58q140 17 227.5 28t131.5 34.5t53 76.5v7q21 130 -40.5 202.5t-205.5 72.5q-150 0 -248.5 -66t-146.5 -148l-268 64 q109 210 300 301t402 91q77 0 165 -17.5t163 -67t113 -145.5q104 112 236.5 171t291.5 59q175 0 317.5 -77.5t212 -247t22.5 -447.5l-17 -106h-1093q-30 -221 69 -341.5t290 -120.5q128 0 230 55t162 164l273 -51q-83 -187 -270 -301t-430 -114zM618 206q125 0 221.5 49 t156.5 128.5t75 170.5l33 198q-25 -21 -98 -37t-154 -27t-130 -18q-132 -17 -234.5 -68.5t-121.5 -171.5q-18 -111 53.5 -167.5t198.5 -56.5zM1392 902h798q29 176 -56.5 291.5t-259.5 115.5q-122 0 -222 -56.5t-167.5 -149.5t-92.5 -201z" />
<glyph unicode="&#xe7;" horiz-adv-x="1599" d="M716 -31q-223 0 -366.5 101.5t-200 280.5t-17.5 410q38 235 155.5 414t295 280t394.5 101q262 0 412 -141.5t136 -374.5h-291q-6 108 -79 186t-216 78q-188 0 -327 -144.5t-178 -391.5q-43 -251 46.5 -398.5t279.5 -147.5q128 0 230.5 70t151.5 194h292 q-43 -149 -143.5 -266t-247 -184t-327.5 -67zM628 8h196l-32 -82q86 -13 141.5 -69.5t34.5 -169.5q-21 -136 -152 -219.5t-353 -83.5l23 167q104 0 173 30t81 97t-33.5 94.5t-155.5 37.5z" />
<glyph unicode="&#xe8;" horiz-adv-x="1658" d="M731 -31q-226 0 -374 98t-206.5 275.5t-18.5 415.5q39 236 157 416t294.5 281t390.5 101q175 0 317.5 -77.5t212 -247t22.5 -447.5l-17 -106h-1094q-39 -250 59 -356t301 -106q131 0 231.5 55t159.5 164l274 -51q-82 -187 -269.5 -301t-439.5 -114zM453 902h797 q30 176 -55 291.5t-260 115.5q-117 0 -218.5 -60t-171.5 -153.5t-92 -193.5zM1113 1741h-239l-231 461h315z" />
<glyph unicode="&#xe9;" horiz-adv-x="1658" d="M731 -31q-226 0 -374 98t-206.5 275.5t-18.5 415.5q39 236 157 416t294.5 281t390.5 101q175 0 317.5 -77.5t212 -247t22.5 -447.5l-17 -106h-1094q-39 -250 59 -356t301 -106q131 0 231.5 55t159.5 164l274 -51q-82 -187 -269.5 -301t-439.5 -114zM453 902h797 q30 176 -55 291.5t-260 115.5q-117 0 -218.5 -60t-171.5 -153.5t-92 -193.5zM868 1741l312 461h315l-388 -461h-239z" />
<glyph unicode="&#xea;" horiz-adv-x="1658" d="M731 -31q-226 0 -374 98t-206.5 275.5t-18.5 415.5q39 236 157 416t294.5 281t390.5 101q175 0 317.5 -77.5t212 -247t22.5 -447.5l-17 -106h-1094q-39 -250 59 -356t301 -106q131 0 231.5 55t159.5 164l274 -51q-82 -187 -269.5 -301t-439.5 -114zM453 902h797 q30 176 -55 291.5t-260 115.5q-117 0 -218.5 -60t-171.5 -153.5t-92 -193.5zM780.121 1720l250.739 268l160.261 -268h271l2.9668 15l-280.607 424h-249l-422.393 -424l-2.9668 -15h270z" />
<glyph unicode="&#xeb;" horiz-adv-x="1658" d="M731 -31q-226 0 -374 98t-206.5 275.5t-18.5 415.5q39 236 157 416t294.5 281t390.5 101q175 0 317.5 -77.5t212 -247t22.5 -447.5l-17 -106h-1094q-39 -250 59 -356t301 -106q131 0 231.5 55t159.5 164l274 -51q-82 -187 -269.5 -301t-439.5 -114zM453 902h797 q30 176 -55 291.5t-260 115.5q-117 0 -218.5 -60t-171.5 -153.5t-92 -193.5zM1308 1777q-76 0 -125 57t-36 136q11 68 65.5 112t118.5 44q82 0 129 -56t34 -138q-10 -62 -62.5 -108.5t-123.5 -46.5zM720 1777q-76 0 -124.5 58.5t-36.5 134.5q10 68 65 112t119 44 q82 0 129 -56t34 -138q-10 -62 -62.5 -108.5t-123.5 -46.5z" />
<glyph unicode="&#xec;" d="M73 0l256 1536h299l-256 -1536h-299zM638 1744h-239l-231 461h315z" />
<glyph unicode="&#xed;" d="M73 0l256 1536h299l-256 -1536h-299zM392 1744l312 461h315l-388 -461h-239z" />
<glyph unicode="&#xee;" d="M73 0l256 1536h299l-256 -1536h-299zM305.121 1723l250.739 268l160.261 -268h271l2.9668 15l-280.607 424h-249l-422.393 -424l-2.9668 -15h270z" />
<glyph unicode="&#xef;" d="M73 0l256 1536h299l-256 -1536h-299zM833 1780q-76 0 -125 57t-36 136q11 68 65.5 112t118.5 44q82 0 129 -56t34 -138q-10 -62 -62.5 -108.5t-123.5 -46.5zM245 1780q-76 0 -124.5 58.5t-36.5 134.5q10 68 65 112t119 44q82 0 129 -56t34 -138q-10 -62 -62.5 -108.5 t-123.5 -46.5z" />
<glyph unicode="&#xf0;" horiz-adv-x="1625" d="M1503 1925l-275 -125q153 -197 233 -460.5t26 -587.5q-40 -248 -153.5 -423.5t-281.5 -268t-372 -92.5q-208 0 -344 95t-192 261t-22 380q36 215 142 376.5t253.5 254t304.5 99.5q153 5 249 -60.5t136 -149.5h20q-29 112 -85 230t-159 235l-382 -174l-53 171l297 135 q-99 83 -224 154l165 201q82 -46 162.5 -105.5t154.5 -131.5l344 156zM728 220q194 0 317.5 132.5t158.5 341.5q21 132 -2.5 247t-99 186.5t-212.5 71.5q-193 0 -316.5 -141t-158.5 -353q-22 -135 2 -245t100 -175t211 -65z" />
<glyph unicode="&#xf1;" horiz-adv-x="1682" d="M523 912l-150 -912h-299l256 1536h287l-42 -250h19q73 123 199.5 196.5t299.5 73.5q233 0 353.5 -146.5t73.5 -432.5l-164 -977h-299l157 941q28 167 -43 261.5t-224 94.5q-157 0 -274 -100.5t-150 -284.5zM698 1722l-198 6q26 166 132 265t237 99q82 0 133.5 -33.5 t98 -67.5t113.5 -34q57 0 101 44t53 109l195 -13q-27 -167 -133 -262.5t-238 -96.5q-70 0 -113 20.5t-74 47.5t-65.5 47.5t-87.5 20.5q-55 0 -98.5 -43.5t-55.5 -108.5z" />
<glyph unicode="&#xf2;" horiz-adv-x="1696" d="M729 -31q-220 0 -366 101t-206.5 282t-21.5 422q38 236 154 412t290.5 273t387.5 97q220 0 366 -101t206.5 -282.5t21.5 -424.5q-38 -234 -154.5 -409.5t-290.5 -272.5t-387 -97zM746 220q144 0 251.5 76t176 202t92.5 276q23 145 -0.5 265.5t-100.5 193.5t-215 73 q-144 0 -252 -76.5t-175.5 -203t-92.5 -277.5q-23 -144 0.5 -264t100.5 -192.5t215 -72.5zM1134 1741h-239l-231 461h315z" />
<glyph unicode="&#xf3;" horiz-adv-x="1696" d="M729 -31q-220 0 -366 101t-206.5 282t-21.5 422q38 236 154 412t290.5 273t387.5 97q220 0 366 -101t206.5 -282.5t21.5 -424.5q-38 -234 -154.5 -409.5t-290.5 -272.5t-387 -97zM746 220q144 0 251.5 76t176 202t92.5 276q23 145 -0.5 265.5t-100.5 193.5t-215 73 q-144 0 -252 -76.5t-175.5 -203t-92.5 -277.5q-23 -144 0.5 -264t100.5 -192.5t215 -72.5zM888 1741l312 461h315l-388 -461h-239z" />
<glyph unicode="&#xf4;" horiz-adv-x="1696" d="M729 -31q-220 0 -366 101t-206.5 282t-21.5 422q38 236 154 412t290.5 273t387.5 97q220 0 366 -101t206.5 -282.5t21.5 -424.5q-38 -234 -154.5 -409.5t-290.5 -272.5t-387 -97zM746 220q144 0 251.5 76t176 202t92.5 276q23 145 -0.5 265.5t-100.5 193.5t-215 73 q-144 0 -252 -76.5t-175.5 -203t-92.5 -277.5q-23 -144 0.5 -264t100.5 -192.5t215 -72.5zM801.121 1720l250.739 268l160.261 -268h271l2.9668 15l-280.607 424h-249l-422.393 -424l-2.9668 -15h270z" />
<glyph unicode="&#xf5;" horiz-adv-x="1673" d="M760 1722l-198 6q26 166 132 265t237 99q82 0 133.5 -33.5t98 -67.5t113.5 -34q57 0 101 44t53 109l195 -13q-27 -167 -133 -262.5t-238 -96.5q-70 0 -113 20.5t-74 47.5t-65.5 47.5t-87.5 20.5q-55 0 -98.5 -43.5t-55.5 -108.5zM731 -31q-220 0 -366 101t-206.5 282 t-21.5 422q38 236 154 412t290.5 273t387.5 97q220 0 366 -101t206.5 -282.5t21.5 -424.5q-38 -234 -154.5 -409.5t-290.5 -272.5t-387 -97zM748 220q144 0 251.5 76t176 202t92.5 276q23 145 -0.5 265.5t-100.5 193.5t-215 73q-144 0 -252 -76.5t-175.5 -203t-92.5 -277.5 q-23 -144 0.5 -264t100.5 -192.5t215 -72.5z" />
<glyph unicode="&#xf6;" horiz-adv-x="1696" d="M729 -31q-220 0 -366 101t-206.5 282t-21.5 422q38 236 154 412t290.5 273t387.5 97q220 0 366 -101t206.5 -282.5t21.5 -424.5q-38 -234 -154.5 -409.5t-290.5 -272.5t-387 -97zM746 220q144 0 251.5 76t176 202t92.5 276q23 145 -0.5 265.5t-100.5 193.5t-215 73 q-144 0 -252 -76.5t-175.5 -203t-92.5 -277.5q-23 -144 0.5 -264t100.5 -192.5t215 -72.5zM1329 1777q-76 0 -125 57t-36 136q11 68 65.5 112t118.5 44q82 0 129 -56t34 -138q-10 -62 -62.5 -108.5t-123.5 -46.5zM741 1777q-76 0 -124.5 58.5t-36.5 134.5q10 68 65 112 t119 44q82 0 129 -56t34 -138q-10 -62 -62.5 -108.5t-123.5 -46.5z" />
<glyph unicode="&#xf7;" horiz-adv-x="1837" d="M1606 938l-42 -263h-1320l42 263h1320zM998 1138q-91 0 -144.5 65t-39.5 155q13 74 75 126t141 52q86 0 137.5 -63.5t38.5 -152.5q-13 -76 -73.5 -129t-134.5 -53zM821 77q-91 0 -143.5 64.5t-36.5 155.5q11 74 72.5 125.5t140.5 51.5q86 0 139 -63.5t37 -152.5 q-11 -76 -73 -128.5t-136 -52.5z" />
<glyph unicode="&#xf8;" horiz-adv-x="1698" d="M249 -89l-149 114l139 164q-78 106 -105.5 255t1.5 330q38 236 154 412t290.5 273t387.5 97q207 0 352 -92l127 149l146 -114l-137 -162q79 -106 107 -256t-1 -333q-38 -234 -154.5 -409.5t-290.5 -272.5t-387 -97q-207 0 -353 93zM746 220q144 0 251.5 76t176 202 t92.5 276q14 90 11 172t-26 150l-695 -822q76 -54 190 -54zM444 431l696 821q-77 54 -190 54q-144 0 -252 -76.5t-175.5 -203t-92.5 -277.5q-14 -89 -11 -170t25 -148z" />
<glyph unicode="&#xf9;" horiz-adv-x="1674" d="M1152 637l150 899h300l-256 -1536h-294l45 266h-16q-72 -123 -203.5 -204.5t-304.5 -81.5q-221 0 -337.5 146.5t-70.5 432.5l164 977h299l-157 -941q-25 -157 46.5 -250t210.5 -93q84 0 174 42t159.5 127.5t90.5 215.5zM1122 1741h-239l-231 461h315z" />
<glyph unicode="&#xfa;" horiz-adv-x="1674" d="M1152 637l150 899h300l-256 -1536h-294l45 266h-16q-72 -123 -203.5 -204.5t-304.5 -81.5q-221 0 -337.5 146.5t-70.5 432.5l164 977h299l-157 -941q-25 -157 46.5 -250t210.5 -93q84 0 174 42t159.5 127.5t90.5 215.5zM876 1741l312 461h315l-388 -461h-239z" />
<glyph unicode="&#xfb;" horiz-adv-x="1674" d="M1152 637l150 899h300l-256 -1536h-294l45 266h-16q-72 -123 -203.5 -204.5t-304.5 -81.5q-221 0 -337.5 146.5t-70.5 432.5l164 977h299l-157 -941q-25 -157 46.5 -250t210.5 -93q84 0 174 42t159.5 127.5t90.5 215.5zM789.121 1720l250.739 268l160.261 -268h271 l2.9668 15l-280.607 424h-249l-422.393 -424l-2.9668 -15h270z" />
<glyph unicode="&#xfc;" horiz-adv-x="1674" d="M1152 637l150 899h300l-256 -1536h-294l45 266h-16q-72 -123 -203.5 -204.5t-304.5 -81.5q-221 0 -337.5 146.5t-70.5 432.5l164 977h299l-157 -941q-25 -157 46.5 -250t210.5 -93q84 0 174 42t159.5 127.5t90.5 215.5zM1317 1777q-76 0 -125 57t-36 136q11 68 65.5 112 t118.5 44q82 0 129 -56t34 -138q-10 -62 -62.5 -108.5t-123.5 -46.5zM729 1777q-76 0 -124.5 58.5t-36.5 134.5q10 68 65 112t119 44q82 0 129 -56t34 -138q-10 -62 -62.5 -108.5t-123.5 -46.5z" />
<glyph unicode="&#xfd;" horiz-adv-x="1595" d="M154 -597q-69 0 -121 11.5t-73 23.5l111 248q118 -33 202.5 -4t168.5 177l70 127l-304 1550h314l190 -1192h16l588 1192h327l-932 -1760q-96 -179 -233.5 -276t-323.5 -97zM831 1741l312 461h315l-388 -461h-239z" />
<glyph unicode="&#xfe;" horiz-adv-x="1719" d="M413 2048h299l-120 -734h18q33 45 90 101.5t148 98.5t225 42q185 0 315 -94t184.5 -271t13.5 -426t-154 -427t-274 -273t-347 -95q-131 0 -207.5 41.5t-116.5 99t-60 103.5h-19l-132 -790h-299zM1294 768q37 231 -39.5 382.5t-283.5 151.5q-202 0 -325.5 -149 t-162.5 -385q-38 -236 36 -389.5t275 -153.5q136 0 238.5 71t169 194t92.5 278z" />
<glyph unicode="&#xff;" horiz-adv-x="1595" d="M154 -597q-69 0 -121 11.5t-73 23.5l111 248q118 -33 202.5 -4t168.5 177l70 127l-304 1550h314l190 -1192h16l588 1192h327l-932 -1760q-96 -179 -233.5 -276t-323.5 -97zM1271 1777q-76 0 -125 57t-36 136q11 68 65.5 112t118.5 44q82 0 129 -56t34 -138 q-10 -62 -62.5 -108.5t-123.5 -46.5zM683 1777q-76 0 -124.5 58.5t-36.5 134.5q10 68 65 112t119 44q82 0 129 -56t34 -138q-10 -62 -62.5 -108.5t-123.5 -46.5z" />
<glyph unicode="&#x131;" d="M73 0l256 1536h299l-256 -1536h-299z" />
<glyph unicode="&#x152;" horiz-adv-x="2746" d="M942 0q-268 0 -453 124.5t-263 354.5t-26 544q52 317 206 546.5t380.5 354t495.5 124.5h1484l-44 -266h-975l-104 -624h908l-44 -265h-908l-104 -627h987l-44 -266h-1496zM1186 266l252 1516h-200q-181 0 -332.5 -90.5t-256 -260t-144.5 -408.5q-59 -355 76.5 -556 t407.5 -201h197z" />
<glyph unicode="&#x153;" horiz-adv-x="2774" d="M729 -31q-220 0 -366 101t-206.5 282t-21.5 422q38 236 154 412t290.5 273t387.5 97q220 0 366 -101t206.5 -282.5t21.5 -424.5q-38 -234 -154.5 -409.5t-290.5 -272.5t-387 -97zM746 220q144 0 251.5 76t176 202t92.5 276q23 145 -0.5 265.5t-100.5 193.5t-215 73 q-144 0 -252 -76.5t-175.5 -203t-92.5 -277.5q-23 -144 0.5 -264t100.5 -192.5t215 -72.5zM1868 -31q-226 0 -374 98t-206.5 275.5t-18.5 415.5q39 236 157 416t294.5 281t390.5 101q175 0 317.5 -77.5t212 -247t22.5 -447.5l-17 -106h-1094q-39 -250 59 -356t301 -106 q131 0 231.5 55t159.5 164l274 -51q-82 -187 -269.5 -301t-439.5 -114zM1590 902h797q30 176 -55 291.5t-260 115.5q-117 0 -218.5 -60t-171.5 -153.5t-92 -193.5z" />
<glyph unicode="&#x178;" horiz-adv-x="1928" d="M279 2048h351l382 -931h23l687 931h351l-949 -1244l-134 -804h-308l133 804zM1529 2289q-76 0 -125 57t-36 136q11 68 65.5 112t118.5 44q82 0 129 -56t34 -138q-10 -62 -62.5 -108.5t-123.5 -46.5zM941 2289q-76 0 -124.5 58.5t-36.5 134.5q10 68 65 112t119 44 q82 0 129 -56t34 -138q-10 -62 -62.5 -108.5t-123.5 -46.5z" />
<glyph unicode="&#x189;" horiz-adv-x="2032" d="M-11 960l36 207h919l-36 -207h-919zM769 0h-672l340 2048h675q302 0 499 -125.5t276 -358t25 -555.5q-52 -315 -203.5 -541t-389.5 -347t-550 -121zM451 270h331q351 0 561 202.5t271 573.5q60 355 -76 543.5t-472 188.5h-365z" />
<glyph unicode="&#x237;" d="M329 1536h299l-270 -1634q-39 -231 -185.5 -355t-385.5 -121h-58l42 258q14 -1 24.5 -1h23.5q107 0 164 57.5t76 163.5z" />
<glyph unicode="&#x2c6;" horiz-adv-x="1379" d="M641.121 1720l250.739 268l160.261 -268h271l2.9668 15l-280.607 424h-249l-422.393 -424l-2.9668 -15h270z" />
<glyph unicode="&#x2c7;" horiz-adv-x="1379" d="M713 2159l162 -268l249 268h271l-2 -15l-421 -424h-249l-282 424l2 15h270z" />
<glyph unicode="&#x2d9;" horiz-adv-x="722" d="M548 1773q-77 0 -130.5 52.5t-49.5 125.5q3 74 61 126.5t136 52.5q77 0 130.5 -52.5t49.5 -126.5q-3 -73 -61 -125.5t-136 -52.5z" />
<glyph unicode="&#x2da;" horiz-adv-x="947" d="M645 1706q-149 0 -241 97t-77 239q10 94 66.5 172.5t143.5 125.5t186 47q100 0 174.5 -47t112.5 -125.5t28 -172.5t-66 -170.5t-141.5 -121t-185.5 -44.5zM666 1866q78 0 134 54t64 122q8 70 -37.5 125.5t-123.5 55.5q-79 0 -135 -55.5t-64 -125.5q-8 -68 37.5 -122 t124.5 -54z" />
<glyph unicode="&#x2dc;" horiz-adv-x="1408" d="M560 1722l-198 6q26 166 132 265t237 99q82 0 133.5 -33.5t98 -67.5t113.5 -34q57 0 101 44t53 109l195 -13q-27 -167 -133 -262.5t-238 -96.5q-70 0 -113 20.5t-74 47.5t-65.5 47.5t-87.5 20.5q-55 0 -98.5 -43.5t-55.5 -108.5z" />
<glyph unicode="&#x2000;" horiz-adv-x="1399" />
<glyph unicode="&#x2001;" horiz-adv-x="2798" />
<glyph unicode="&#x2002;" horiz-adv-x="1399" />
<glyph unicode="&#x2003;" horiz-adv-x="2798" />
<glyph unicode="&#x2004;" horiz-adv-x="932" />
<glyph unicode="&#x2005;" horiz-adv-x="699" />
<glyph unicode="&#x2006;" horiz-adv-x="466" />
<glyph unicode="&#x2007;" horiz-adv-x="466" />
<glyph unicode="&#x2008;" horiz-adv-x="349" />
<glyph unicode="&#x2009;" horiz-adv-x="559" />
<glyph unicode="&#x200a;" horiz-adv-x="155" />
<glyph unicode="&#x2010;" horiz-adv-x="1304" d="M1144 995l-43 -259h-909l43 259h909z" />
<glyph unicode="&#x2011;" horiz-adv-x="1304" d="M1144 995l-43 -259h-909l43 259h909z" />
<glyph unicode="&#x2012;" horiz-adv-x="1304" d="M1144 995l-43 -259h-909l43 259h909z" />
<glyph unicode="&#x2013;" horiz-adv-x="1408" d="M1445 995l-42 -259h-1408l42 259h1408z" />
<glyph unicode="&#x2014;" horiz-adv-x="2816" d="M2853 995l-42 -259h-2816l42 259h2816z" />
<glyph unicode="&#x2018;" horiz-adv-x="601" d="M246 1408l34 192q22 128 114.5 271t224.5 235l128 -106q-73 -89 -132.5 -186.5t-78.5 -210.5l-34 -195h-256z" />
<glyph unicode="&#x2019;" horiz-adv-x="601" d="M670 2048l-30 -192q-13 -85 -61 -178.5t-119.5 -179.5t-157.5 -148l-132 106q73 86 132 183.5t79 213.5l33 195h256z" />
<glyph unicode="&#x201a;" horiz-adv-x="601" d="M374 256l-30 -192q-13 -85 -61 -178.5t-119.5 -179.5t-157.5 -148l-132 106q73 86 132 183.5t79 213.5l33 195h256z" />
<glyph unicode="&#x201c;" horiz-adv-x="1110" d="M246 1408l34 192q22 128 114.5 271t224.5 235l128 -106q-73 -89 -132.5 -186.5t-78.5 -210.5l-34 -195h-256zM756 1408l34 192q22 128 114.5 271t224.5 235l128 -106q-73 -89 -132.5 -186.5t-78.5 -210.5l-34 -195h-256z" />
<glyph unicode="&#x201d;" horiz-adv-x="1110" d="M670 2048l-30 -192q-13 -85 -61 -178.5t-119.5 -179.5t-157.5 -148l-132 106q73 86 132 183.5t79 213.5l33 195h256zM1179 2048l-30 -192q-13 -85 -61 -178.5t-119.5 -179.5t-157.5 -148l-132 106q73 86 132 183.5t79 213.5l33 195h256z" />
<glyph unicode="&#x201e;" horiz-adv-x="1110" d="M372 256l-30 -192q-13 -85 -61 -178.5t-119.5 -179.5t-157.5 -148l-132 106q73 86 132 183.5t79 213.5l33 195h256zM881 256l-30 -192q-13 -85 -61 -178.5t-119.5 -179.5t-157.5 -148l-132 106q73 86 132 183.5t79 213.5l33 195h256z" />
<glyph unicode="&#x2022;" horiz-adv-x="1280" d="M586 376q-124 0 -216.5 61.5t-136.5 164.5t-23 227q20 120 93.5 216.5t180 153.5t225.5 57q124 0 216.5 -62t136.5 -164.5t24 -226.5q-19 -120 -93 -216.5t-181 -153.5t-226 -57z" />
<glyph unicode="&#x2026;" horiz-adv-x="2291" d="M298 -19q-85 0 -140 58.5t-54 141.5t62.5 139.5t143.5 56.5q81 0 139.5 -58t54.5 -138q-4 -83 -65 -141.5t-141 -58.5zM1045 -19q-85 0 -140 58.5t-54 141.5t62.5 139.5t143.5 56.5q81 0 139.5 -58t54.5 -138q-4 -83 -65 -141.5t-141 -58.5zM1793 -19q-85 0 -140 58.5 t-54 141.5t62.5 139.5t143.5 56.5q81 0 139.5 -58t54.5 -138q-4 -83 -65 -141.5t-141 -58.5z" />
<glyph unicode="&#x202f;" horiz-adv-x="559" />
<glyph unicode="&#x2039;" horiz-adv-x="1040" d="M759 220h-267l-304 600l2 8h-2l4 20l504 600h267l-482 -612z" />
<glyph unicode="&#x203a;" horiz-adv-x="1040" d="M81 220l482 612l-278 616h267l304 -600l-2 -8h2l-4 -20l-504 -600h-267z" />
<glyph unicode="&#x2044;" horiz-adv-x="792" d="M-458 0l1551 2048h242l-1551 -2048h-242z" />
<glyph unicode="&#x205f;" horiz-adv-x="699" />
<glyph unicode="&#x20ac;" horiz-adv-x="1892" d="M1578 1330l-128 -206h-756q-11 -49 -20 -101q-8 -51 -13 -99h669l-130 -208h-543q19 -230 138.5 -345.5t304.5 -115.5q132 0 245.5 50t200.5 113l77 -252q-121 -96 -269 -145t-302 -49q-313 0 -502 196.5t-202 547.5h-282l108 208h182q6 49 14 99q8 51 19 101h-254 l108 206h206q85 235 228.5 401.5t328.5 255.5t394 89q160 0 289.5 -52.5t220.5 -150.5l-157 -253q-71 72 -169 122.5t-229 50.5q-185 0 -343 -116.5t-253 -346.5h819z" />
<glyph unicode="&#x2122;" horiz-adv-x="1744" d="M1276 1312l-125 475l-79 -475h-147l122 736h178l127 -522l298 522h178l-122 -736h-147l79 474l-282 -474h-80zM426 1312l102 610h-224l20 126h595l-20 -126h-224l-102 -610h-147z" />
<glyph unicode="&#x25fc;" horiz-adv-x="1535" d="M0 1535h1535v-1535h-1535v1535z" />
<glyph horiz-adv-x="1077" d="M-14 0l31 168l494 354q95 69 153.5 123t69.5 117q12 71 -37.5 115t-138.5 44q-84 0 -150 -44.5t-81 -124.5h-225q24 155 156.5 253.5t323.5 98.5t287 -100.5t75 -246.5q-15 -101 -92.5 -192.5t-263.5 -211.5l-231 -156l-1 -9h526l-31 -188h-865z" />
<glyph horiz-adv-x="1129" d="M-14 189l31 183l641 716h290l-118 -712h150l-26 -187h-155l-31 -189h-226l34 189h-590zM611 376l77 461h-6l-427 -455v-6h356z" />
<glyph horiz-adv-x="784" d="M805 2112l-180 -1088h-230l137 805h-12q-24 -25 -91 -55.5t-173 -29.5l27 186q77 -1 141.5 28.5t105.5 72.5t48 81h227z" />
<glyph horiz-adv-x="1108" d="M603 1008q-128 0 -227.5 40.5t-150.5 115t-34 176.5h232q-10 -64 45.5 -102t139.5 -38q99 0 173 48t85 113q11 64 -48 98.5t-166 34.5h-104l23 168h95q95 0 166.5 43t83.5 113q11 56 -28.5 91.5t-123.5 35.5q-87 0 -159.5 -39.5t-84.5 -101.5h-222q15 95 82.5 168 t169 114.5t219.5 41.5q198 0 294.5 -97.5t75.5 -225.5q-15 -98 -93 -150t-179 -64v-8q129 -19 190 -91.5t44 -180.5q-14 -85 -83.5 -153.5t-177 -109t-237.5 -40.5z" />
<glyph horiz-adv-x="1611" d="M1362 2261q-76 0 -125 57t-36 136q11 68 65.5 112t118.5 44q82 0 129 -56t34 -138q-10 -62 -62.5 -108.5t-123.5 -46.5zM774 2261q-76 0 -124.5 58.5t-36.5 134.5q10 68 65 112t119 44q82 0 129 -56t34 -138q-10 -62 -62.5 -108.5t-123.5 -46.5z" />
<glyph horiz-adv-x="1294" d="M591 2252l-198 6q26 166 132 265t237 99q82 0 133.5 -33.5t98 -67.5t113.5 -34q57 0 101 44t53 109l195 -13q-27 -167 -133 -262.5t-238 -96.5q-70 0 -113 20.5t-74 47.5t-65.5 47.5t-87.5 20.5q-55 0 -98.5 -43.5t-55.5 -108.5z" />
<glyph horiz-adv-x="947" d="M708 2175q-134 0 -216 91.5t-62 219.5q14 86 69.5 157t136.5 113t172 42t160.5 -41.5t103.5 -112.5t18 -158q-25 -135 -129.5 -223t-252.5 -88zM734 2334q63 0 119 45.5t64 106.5q9 68 -27.5 110t-107.5 42q-61 0 -114.5 -46t-64.5 -106q-11 -64 27 -108t104 -44z" />
</font>
</defs>
</svg>
