<?xml version="1.0" standalone="no"?>
<!DOCTYPE svg PUBLIC "-//W3C//DTD SVG 1.1//EN" "http://www.w3.org/Graphics/SVG/1.1/DTD/svg11.dtd" >
<svg xmlns="http://www.w3.org/2000/svg" xmlns:xlink="http://www.w3.org/1999/xlink" version="1.1">
<metadata></metadata>
<defs>
<font id="interextra_bold_italic" horiz-adv-x="799" >
<font-face units-per-em="2816" ascent="2252" descent="-564" />
<missing-glyph horiz-adv-x="606" />
<glyph horiz-adv-x="0" />
<glyph horiz-adv-x="938" />
<glyph horiz-adv-x="0" />
<glyph unicode="&#x9;" horiz-adv-x="832" />
<glyph unicode=" "  horiz-adv-x="606" />
<glyph unicode="&#x09;" horiz-adv-x="606" />
<glyph unicode="&#xa0;" horiz-adv-x="606" />
<glyph unicode="!" horiz-adv-x="957" d="M938 2048l-280 -1421h-408l189 1421h499zM369 -29q-109 0 -178 75.5t-60 184.5q10 107 93.5 181.5t192.5 74.5q104 0 174 -75t60 -181q-10 -109 -95.5 -184.5t-186.5 -75.5z" />
<glyph unicode="&#x22;" horiz-adv-x="1094" d="M664 2048l-132 -803h-332l132 803h332zM1182 2048l-132 -803h-332l132 803h332z" />
<glyph unicode="#" horiz-adv-x="1846" d="M944 0l80 488h-360l-80 -488h-360l80 488h-273l61 360h271l58 352h-273l61 360h271l80 488h360l-80 -488h360l80 488h360l-80 -488h273l-61 -360h-271l-58 -352h273l-61 -360h-271l-80 -488h-360zM723 848h360l58 352h-360z" />
<glyph unicode="$" horiz-adv-x="1860" d="M638 -256l42 236q-320 29 -484 203.5t-114 498.5h473q-14 -117 40 -188.5t159 -96.5l81 452l-99 24q-254 62 -384 198t-93 369q29 175 138.5 310.5t278.5 218.5t376 102l42 233h260l-42 -237q288 -36 431 -206.5t101 -430.5h-474q11 166 -133 217l-76 -425l49 -12 q291 -66 428 -218.5t96 -397.5q-45 -268 -253.5 -429t-540.5 -186l-42 -235h-260zM1014 398q194 47 218 197q21 122 -149 187zM913 1288l65 367q-88 -20 -138 -68t-62 -113q-14 -66 23 -111t112 -75z" />
<glyph unicode="%" horiz-adv-x="2464" d="M1234 384l20 108q20 127 92 233.5t187.5 171.5t264.5 65q154 0 248 -64t130 -171t14 -235l-20 -108q-20 -126 -92 -233t-187.5 -172t-267.5 -65q-151 0 -244.5 65t-129 172t-15.5 233zM368 1556l16 108q22 128 94.5 235t187.5 171t263 64q153 0 247.5 -64t130.5 -171 t14 -235l-16 -108q-21 -128 -93 -234t-187.5 -169t-266.5 -63q-152 0 -245.5 64t-129.5 170t-15 232zM347 0l1513 2048h274l-1513 -2048h-274zM1573 492l-20 -108q-9 -64 11.5 -123t105.5 -59q87 0 128 57.5t50 124.5l20 108q11 67 -8 126.5t-109 59.5q-85 0 -126 -59.5 t-52 -126.5zM706 1664l-16 -108q-12 -67 10 -124.5t105 -57.5q87 0 126 57.5t51 124.5l16 108q12 67 -7 126.5t-109 59.5q-85 0 -124.5 -60.5t-51.5 -125.5z" />
<glyph unicode="&#x26;" horiz-adv-x="1931" d="M667 -31q-216 0 -359 77.5t-205.5 208t-36.5 289.5q28 177 148.5 295t302.5 229q-58 96 -92.5 211.5t-11.5 250.5q26 153 118.5 277t234.5 197.5t315 73.5q169 0 280 -68.5t158.5 -182.5t23.5 -251q-23 -145 -114 -265t-237 -213l-123 -79l244 -337q54 75 92.5 164 t54.5 188h394q-65 -421 -304 -680l257 -354h-498l-94 125q-130 -83 -273 -119.5t-275 -36.5zM997 414l-284 378q-71 -47 -116.5 -100.5t-56.5 -115.5q-13 -98 46 -159t176 -61q114 0 235 58zM890 1284l106 61q80 46 118.5 98t47.5 101q11 54 -24 99t-120 45 q-78 0 -135.5 -46t-67.5 -119q-8 -58 13.5 -116t61.5 -123z" />
<glyph unicode="'" horiz-adv-x="576" d="M664 2048l-132 -803h-332l132 803h332z" />
<glyph unicode="(" horiz-adv-x="1196" d="M258 806q61 371 213 682.5t408 578.5h474q-129 -132 -248 -337.5t-208 -446t-129 -477.5q-40 -236 -30.5 -476.5t61 -446t136.5 -337.5h-473q-167 267 -215.5 578.5t11.5 681.5z" />
<glyph unicode=")" horiz-adv-x="1196" d="M951 807q-61 -371 -213 -682.5t-408 -578.5h-474q129 132 248 337.5t208 446t129 477.5q40 236 30.5 476.5t-61 446t-136.5 337.5h473q167 -267 215.5 -578.5t-11.5 -681.5z" />
<glyph unicode="*" horiz-adv-x="1651" d="M698 896l92 370l-344 -211l-103 258l359 159l-308 159l191 258l272 -211l33 370h295l-91 -370l343 211l104 -258l-359 -159l308 -159l-191 -258l-272 211l-34 -370h-295z" />
<glyph unicode="+" horiz-adv-x="1923" d="M650 106l86 519h-519l68 403h517l86 518h403l-85 -518h519l-68 -403h-518l-85 -519h-404z" />
<glyph unicode="," horiz-adv-x="874" d="M574 280l-29 -111q-34 -138 -92 -269.5t-116 -236t-91 -163.5h-308q23 55 68 160.5t91.5 238.5t70.5 269l22 112h384z" />
<glyph unicode="-" horiz-adv-x="1328" d="M1178 1017l-61 -377h-947l61 377h947z" />
<glyph unicode="." horiz-adv-x="859" d="M317 -29q-109 0 -178 75.5t-60 184.5q10 107 93.5 181.5t192.5 74.5q104 0 174 -75t60 -181q-10 -109 -95.5 -184.5t-186.5 -75.5z" />
<glyph unicode="/" horiz-adv-x="1129" d="M1331 2144l-1064 -2452h-417l1064 2452h417z" />
<glyph unicode="0" horiz-adv-x="1997" d="M863 -50q-269 0 -443 127.5t-239 367t-7 576.5q57 337 201 572.5t358 359t481 123.5q401 0 588 -274.5t103 -780.5q-56 -337 -200.5 -577t-359 -367t-482.5 -127zM931 355q161 0 284 164t181 502q56 332 -15.5 492.5t-230.5 160.5q-160 0 -286 -160.5t-182 -492.5 q-56 -339 16.5 -502.5t232.5 -163.5z" />
<glyph unicode="1" horiz-adv-x="1366" d="M1275 2048l-340 -2048h-494l241 1461h-19q-46 -54 -158 -103t-279 -49l64 390q123 0 229.5 54.5t177.5 135t86 159.5h492z" />
<glyph unicode="2" horiz-adv-x="1797" d="M23 0l59 356l856 654q146 114 229.5 204t102.5 204q21 128 -47.5 200t-193.5 72q-128 0 -220 -77t-115 -215h-470q35 209 155 361t304.5 234.5t410.5 82.5q233 0 392 -78t230.5 -217t40.5 -324q-20 -117 -86.5 -231.5t-211 -254t-399.5 -333.5l-282 -226l-3 -13h831 l-67 -399h-1516z" />
<glyph unicode="3" horiz-adv-x="1878" d="M822 -28q-240 0 -412.5 80t-254 222.5t-51.5 327.5h491q-16 -101 57 -164.5t197 -63.5q142 0 244.5 81t120.5 191q17 108 -64.5 164t-230.5 56h-209l58 352h188q139 0 241 74.5t121 191.5q16 93 -37 149.5t-171 56.5q-83 0 -160.5 -29.5t-131 -82t-64.5 -122.5h-470 q31 182 151.5 322t302.5 219t396 79q226 0 382 -84.5t228.5 -224t45.5 -303.5q-29 -178 -158 -276t-321 -122v-15q212 -27 324.5 -163t80.5 -332q-27 -169 -151 -301t-316.5 -207.5t-426.5 -75.5z" />
<glyph unicode="4" horiz-adv-x="1942" d="M54 340l64 386l1059 1322h623l-219 -1318h245l-65 -390h-245l-56 -340h-473l57 340h-990zM1119 730l131 794h-16l-620 -778l-4 -16h509z" />
<glyph unicode="5" horiz-adv-x="1850" d="M803 -28q-223 0 -384 81t-238.5 223.5t-50.5 325.5h480q-13 -112 61.5 -181t193.5 -69q142 0 245.5 90t128.5 238q24 149 -51 239.5t-216 90.5q-90 0 -175.5 -39.5t-138.5 -108.5l-424 82l273 1104h1314l-65 -399h-907l-127 -483h12q65 85 188 140.5t268 55.5 q184 0 313.5 -86t187.5 -236.5t25 -345.5q-33 -211 -158.5 -373.5t-320 -255.5t-434.5 -93z" />
<glyph unicode="6" horiz-adv-x="1894" d="M862 -28q-172 0 -320 57t-250.5 180.5t-140.5 322t10 482.5q56 336 199 575.5t353 366.5t466 127q217 0 371 -82.5t233.5 -223.5t70.5 -318h-480q-1 105 -64 154t-161 49q-193 0 -321.5 -169t-178.5 -452l16 25q87 138 236.5 211t315.5 73q189 0 319.5 -88.5t187.5 -242 t24 -349.5q-34 -208 -157.5 -365.5t-311.5 -245t-417 -87.5zM880 352q97 0 182 46.5t142 126.5t71 180q20 130 -47 215t-198 85q-96 0 -181 -46.5t-142.5 -126.5t-73.5 -179q-19 -133 49 -217t198 -84z" />
<glyph unicode="7" horiz-adv-x="1698" d="M110 0l1097 1636l4 13h-966l65 399h1478l-66 -402l-1103 -1646h-509z" />
<glyph unicode="8" horiz-adv-x="1899" d="M819 -28q-240 0 -415.5 77t-261 209.5t-57.5 298.5q22 126 101 231t195 175.5t246 90.5v15q-161 32 -247 159.5t-58 297.5q27 159 144.5 283.5t298 195.5t396.5 71q217 0 375 -73t235.5 -198.5t51.5 -285.5q-28 -172 -157.5 -295.5t-303.5 -154.5v-15q125 -20 218 -91 t137 -177.5t21 -235.5q-27 -164 -155 -295t-326.5 -207t-437.5 -76zM872 323q137 0 236.5 78t118.5 197q20 120 -54 195.5t-207 75.5q-135 0 -235.5 -78.5t-120.5 -199.5q-19 -118 55 -193t207 -75zM1019 1218q119 0 206 72t106 181t-43.5 175.5t-178.5 66.5 q-119 0 -208 -69.5t-107 -178.5q-19 -109 45.5 -178t179.5 -69z" />
<glyph unicode="9" horiz-adv-x="1894" d="M1119 2083q173 0 321.5 -57t250.5 -180.5t140 -322t-10 -482.5q-55 -336 -198.5 -575.5t-353.5 -366.5t-467 -127q-216 0 -370.5 82.5t-233.5 224t-70 317.5h479q1 -106 64.5 -154t161.5 -48q193 0 321.5 169t178.5 451l-16 -25q-86 -138 -235.5 -210.5t-316.5 -72.5 q-188 0 -319 88.5t-188 242t-24 349.5q35 208 158 365t311 245t416 87zM1102 1703q-96 0 -181.5 -46.5t-143 -126t-71.5 -180.5q-21 -130 47.5 -215t198.5 -85q96 0 181 47t143 127t73 178q20 132 -48 216.5t-199 84.5z" />
<glyph unicode=":" horiz-adv-x="859" d="M317 -29q-109 0 -178 75.5t-60 184.5q10 107 93.5 181.5t192.5 74.5q104 0 174 -75t60 -181q-10 -109 -95.5 -184.5t-186.5 -75.5zM492 1025q-109 0 -178 75.5t-60 184.5q10 107 93.5 181.5t192.5 74.5q104 0 174 -75t60 -181q-10 -109 -95.5 -184.5t-186.5 -75.5z" />
<glyph unicode=";" horiz-adv-x="874" d="M574 280l-29 -111q-34 -138 -92 -269.5t-116 -236t-91 -163.5h-308q23 55 68 160.5t91.5 238.5t70.5 269l22 112h384zM497 1025q-109 0 -178 75.5t-60 184.5q10 107 93.5 181.5t192.5 74.5q104 0 174 -75t60 -181q-10 -109 -95.5 -184.5t-186.5 -75.5z" />
<glyph unicode="&#x3c;" horiz-adv-x="1923" d="M214 618l69 416l1547 608l-76 -455l-999 -352l-4 -19l885 -352l-76 -454z" />
<glyph unicode="=" horiz-adv-x="1923" d="M287 969l68 401h1415l-68 -401h-1415zM175 281l65 401h1414l-64 -401h-1415z" />
<glyph unicode="&#x3e;" horiz-adv-x="1923" d="M1662 618l-1550 -608l76 454l999 353l4 19l-885 351l76 455l1349 -608z" />
<glyph unicode="?" horiz-adv-x="1636" d="M518 627l7 43q29 169 74.5 269.5t110.5 162t151 112.5q103 61 178 125t89 155q14 89 -38 143.5t-140 54.5q-90 0 -169.5 -59t-96.5 -164h-460q38 210 154 344t283 198.5t356 64.5q205 0 354.5 -64t221 -188.5t41.5 -306.5q-30 -179 -135.5 -296t-263.5 -200 q-124 -67 -193 -143t-92 -208l-7 -43h-425zM645 -29q-109 0 -178 75.5t-60 184.5q10 107 93.5 181.5t192.5 74.5q104 0 174 -75t60 -181q-10 -109 -95.5 -184.5t-186.5 -75.5z" />
<glyph unicode="@" horiz-adv-x="2991" d="M1789 2062q405 0 673.5 -151t380.5 -429.5t48 -661.5q-64 -394 -257.5 -620t-525.5 -250q-133 -11 -196.5 16t-82.5 79t-20 115h-12q-33 -61 -118.5 -108.5t-196.5 -72t-223 -17.5q-150 10 -275.5 91t-186.5 242.5t-20 411.5q42 249 156 407t257.5 239.5t275.5 102.5 q121 20 225.5 3t173.5 -55t80 -82h15l17 112h346l-165 -1000q-16 -123 69 -123q87 0 163.5 131t119.5 408q44 258 -11.5 423t-176.5 257t-278 128t-318 36q-339 0 -579.5 -133t-383 -355.5t-188.5 -492.5q-76 -462 140 -705.5t697 -243.5q176 0 338.5 32t259.5 69l60 -325 q-70 -39 -187 -72.5t-261.5 -54t-300.5 -20.5q-432 0 -711.5 154.5t-393 446t-46.5 701.5q68 406 282 714t553.5 480.5t783.5 172.5zM1574 1078q-165 0 -270 -94.5t-134 -264.5q-16 -99 2 -187t85.5 -143.5t197.5 -55.5q179 0 263.5 100t112.5 289q16 104 4 184.5t-72 126 t-189 45.5z" />
<glyph unicode="A" horiz-adv-x="2173" d="M470 0h-532l1031 2048h659l351 -2048h-532l-63 430h-707zM857 806h472l-107 726h-16z" />
<glyph unicode="B" horiz-adv-x="1870" d="M27 0l340 2048h854q345 0 498.5 -143t114.5 -375q-31 -174 -158 -291t-300 -153l-4 -20q124 -4 219.5 -65.5t141.5 -170.5t21 -257q-27 -165 -133 -294.5t-277.5 -204t-397.5 -74.5h-919zM590 399h306q159 0 246.5 61.5t103.5 169.5q20 118 -50 187.5t-213 69.5h-315z M723 1206h275q120 0 209 60.5t106 167.5q17 104 -47.5 162.5t-186.5 58.5h-282z" />
<glyph unicode="C" horiz-adv-x="2141" d="M2101 1306h-494q8 155 -75 245.5t-244 90.5q-232 0 -396 -171t-215 -476q-47 -295 48 -442t301 -147q176 0 304 84.5t178 229.5h498q-37 -136 -121 -268.5t-212.5 -241t-297.5 -173.5t-376 -65q-284 0 -488 127t-294.5 368.5t-34.5 585.5q55 333 218 561t396 345t498 117 q256 0 442.5 -90.5t283 -262.5t81.5 -417z" />
<glyph unicode="D" horiz-adv-x="2056" d="M795 0h-768l340 2048h745q313 0 521 -126.5t294.5 -361.5t32.5 -561q-52 -314 -209 -538t-400.5 -342.5t-555.5 -118.5zM592 422h234q258 0 425.5 144t222.5 484q54 323 -59 449.5t-377 126.5h-246z" />
<glyph unicode="E" horiz-adv-x="1738" d="M27 0l340 2048h1428l-68 -402h-933l-68 -420h860l-68 -403h-860l-68 -421h933l-68 -402h-1428z" />
<glyph unicode="F" horiz-adv-x="1646" d="M27 0l340 2048h1398l-68 -402h-903l-68 -420h814l-68 -403h-814l-136 -823h-495z" />
<glyph unicode="G" horiz-adv-x="2159" d="M1600 1379q-12 125 -87.5 194t-224.5 69q-223 0 -390.5 -161t-215.5 -454q-49 -295 45 -458t323 -163q202 0 333 95.5t160 257.5h-405l60 361h882l-45 -271q-45 -275 -193.5 -471.5t-370 -301t-485.5 -104.5q-293 0 -493.5 127.5t-285.5 362.5t-32 559q56 335 225.5 571 t412.5 360t517 124q236 0 413 -89t272.5 -246.5t85.5 -361.5h-501z" />
<glyph unicode="H" horiz-adv-x="2106" d="M27 0l340 2048h495l-136 -822h807l136 822h494l-340 -2048h-494l136 823h-807l-136 -823h-495z" />
<glyph unicode="I" horiz-adv-x="805" d="M862 2048l-340 -2048h-495l340 2048h495z" />
<glyph unicode="J" horiz-adv-x="1630" d="M1199 2048h488l-234 -1418q-33 -199 -150.5 -347t-296 -229.5t-397.5 -81.5q-191 0 -337 67.5t-216 208t-33 360.5h492q-32 -246 181 -246q221 0 270 272z" />
<glyph unicode="K" horiz-adv-x="1977" d="M27 0l340 2048h495l-143 -866h27l820 866h583l-875 -914l548 -1134h-592l-372 805l-244 -253l-92 -552h-495z" />
<glyph unicode="L" horiz-adv-x="1603" d="M27 0l340 2048h495l-272 -1646h852l-68 -402h-1347z" />
<glyph unicode="M" horiz-adv-x="2600" d="M367 2048h613l310 -1268h24l730 1268h613l-340 -2048h-482l209 1258h-17l-698 -1245h-307l-284 1252h-17l-212 -1265h-482z" />
<glyph unicode="N" horiz-adv-x="2053" d="M2110 2048l-340 -2048h-420l-617 1182h-14l-197 -1182h-495l340 2048h426l612 -1180h17l194 1180h494z" />
<glyph unicode="O" horiz-adv-x="2221" d="M2125 992q-55 -331 -218.5 -558.5t-397.5 -344.5t-502 -117q-283 0 -490 126t-300.5 367t-36.5 585q54 331 217.5 560t399 347.5t505.5 118.5q282 0 488 -127t299 -369t36 -588zM1630 1050q47 290 -44.5 441t-302.5 151q-235 0 -396.5 -170.5t-211.5 -479.5 q-52 -292 45 -439t305 -147q232 0 392.5 167.5t212.5 476.5z" />
<glyph unicode="P" horiz-adv-x="1835" d="M27 0l340 2048h846q231 0 383.5 -89.5t216.5 -249t29 -370.5q-34 -213 -153 -371t-304.5 -245t-422.5 -87h-334l-106 -636h-495zM693 1026h243q170 0 270.5 85.5t123.5 227.5q23 143 -49.5 226.5t-239.5 83.5h-244z" />
<glyph unicode="Q" horiz-adv-x="2229" d="M2125 992q-44 -262 -157.5 -459t-275.5 -326l250 -367h-448l-132 188q-170 -56 -355 -56q-283 0 -490 126t-300.5 367t-36.5 585q54 331 217.5 560t399 347.5t505.5 118.5q282 0 488 -127t299 -369t36 -588zM927 736h400l101 -151q152 169 202 465q47 290 -44.5 441 t-302.5 151q-235 0 -396.5 -170.5t-211.5 -479.5q-52 -292 45 -439t305 -147q52 0 102 9z" />
<glyph unicode="R" horiz-adv-x="1886" d="M27 0l340 2048h846q346 0 516 -183t117 -499q-34 -212 -152 -360.5t-300 -225.5l296 -780h-540l-258 701h-253l-117 -701h-495zM704 1091h244q167 0 265 66.5t121 208.5q45 283 -293 283h-244z" />
<glyph unicode="S" horiz-adv-x="1860" d="M1370 1430q8 113 -59.5 175t-212.5 62q-144 0 -224.5 -54t-95.5 -139q-19 -90 55 -142t209 -82l168 -40q291 -66 428 -218.5t96 -397.5q-49 -292 -291 -456t-625 -164q-256 0 -434.5 77.5t-258.5 235t-43 395.5h473q-17 -148 72.5 -223.5t252.5 -75.5q151 0 244 59 t108 153q15 86 -56.5 138.5t-234.5 89.5l-205 50q-254 62 -384 198t-93 369q32 191 158.5 334t321 222.5t428.5 79.5q238 0 400.5 -80.5t235 -226t41.5 -339.5h-474z" />
<glyph unicode="T" horiz-adv-x="1907" d="M232 1646l68 402h1731l-68 -402h-621l-272 -1646h-488l272 1646h-622z" />
<glyph unicode="U" horiz-adv-x="2043" d="M1609 2048h491l-224 -1353q-38 -233 -174 -394t-345.5 -244t-466.5 -83q-259 0 -440 83t-263 244t-44 394l224 1353h495l-221 -1334q-22 -139 66 -221.5t254 -82.5q168 0 286.5 82.5t140.5 221.5z" />
<glyph unicode="V" horiz-adv-x="2173" d="M832 2048l209 -1500h17l707 1500h554l-1031 -2048h-659l-351 2048h554z" />
<glyph unicode="W" horiz-adv-x="2998" d="M518 0l-256 2048h547l88 -1342h17l574 1342h446l132 -1345h16l532 1345h546l-935 -2048h-477l-161 1242h-16l-577 -1242h-476z" />
<glyph unicode="X" horiz-adv-x="2080" d="M849 2048l266 -647h16l486 647h573l-786 -1024l466 -1024h-555l-276 654h-16l-492 -654h-577l807 1024l-451 1024h539z" />
<glyph unicode="Y" horiz-adv-x="2096" d="M265 2048h553l290 -857h21l573 857h553l-975 -1364l-114 -684h-492l115 684z" />
<glyph unicode="Z" horiz-adv-x="1917" d="M20 0l48 282l1222 1364h-997l68 402h1620l-47 -282l-1224 -1364h998l-68 -402h-1620z" />
<glyph unicode="[" horiz-adv-x="1196" d="M82 -454l417 2521h855l-61 -359h-381l-296 -1803h381l-61 -359h-854z" />
<glyph unicode="\" horiz-adv-x="1261" d="M306 2048h421l262 -2356h-421z" />
<glyph unicode="]" horiz-adv-x="1196" d="M1127 2067l-417 -2521h-855l61 359h381l296 1803h-381l61 359h854z" />
<glyph unicode="^" horiz-adv-x="1390" d="M146 1120l572 890h368l278 -890h-337l-156 578h-17l-341 -578h-367z" />
<glyph unicode="_" horiz-adv-x="1365" d="M1238 0l-59 -358h-1366l58 358h1367z" />
<glyph unicode="`" horiz-adv-x="1400" d="M1178 1731h-333l-229 451h433z" />
<glyph unicode="a" horiz-adv-x="1649" d="M456 -26q-219 0 -343 112.5t-86 339.5q29 170 123.5 270.5t232 149t294.5 61.5q199 17 287 42t101 95v5q12 77 -33 119t-135 42q-96 0 -164 -42t-95 -116l-448 16q63 210 260.5 349t507.5 139q194 0 338 -60.5t214 -174.5t43 -277l-175 -1044h-460l36 214h-12 q-165 -240 -486 -240zM662 294q116 0 210 70t113 182l23 146q-43 -22 -120.5 -36.5t-145.5 -25.5q-108 -16 -172.5 -60.5t-75.5 -119.5q-12 -75 35 -115.5t133 -40.5z" />
<glyph unicode="b" horiz-adv-x="1802" d="M27 0l340 2048h489l-127 -775h10q60 106 180 194.5t302 88.5q161 0 286 -84.5t181.5 -259t11.5 -445.5q-43 -262 -155 -437t-266.5 -263.5t-324.5 -88.5q-174 0 -265.5 82.5t-118.5 188.5h-19l-40 -249h-484zM634 768q-30 -187 26 -298t190 -111q135 0 226.5 111.5 t121.5 297.5q30 185 -23.5 295.5t-190.5 110.5q-134 0 -227 -109t-123 -297z" />
<glyph unicode="c" horiz-adv-x="1681" d="M740 -29q-244 0 -401 100.5t-219.5 279t-23.5 412.5q38 236 161 414.5t314 278.5t432 100q320 0 484 -170t124 -454h-457q5 117 -48.5 184.5t-156.5 67.5q-130 0 -226.5 -106.5t-128.5 -309.5q-33 -205 26.5 -311.5t187.5 -106.5q102 0 180.5 65.5t113.5 186.5h456 q-39 -190 -150 -332t-281 -220.5t-387 -78.5z" />
<glyph unicode="d" horiz-adv-x="1803" d="M586 -22q-170 0 -294.5 88.5t-178 263.5t-10.5 437q45 271 160 445.5t268 259t313 84.5q122 0 201.5 -41.5t124.5 -106t62 -135.5h10l129 775h489l-340 -2048h-484l42 249h-16q-64 -106 -183.5 -188.5t-292.5 -82.5zM817 359q134 0 228 111t125 298q31 188 -26.5 297 t-191.5 109q-136 0 -226.5 -110.5t-120.5 -295.5q-31 -186 22.5 -297.5t189.5 -111.5z" />
<glyph unicode="e" horiz-adv-x="1698" d="M741 -29q-361 0 -534 211.5t-111 579.5q40 238 163.5 416.5t311.5 278t419 99.5q218 0 370.5 -91t218 -265.5t23.5 -427.5l-19 -122h-1023l-3 -18q-23 -146 43 -227t209 -81q95 0 173 40t120 117l446 -13q-82 -226 -292.5 -361.5t-514.5 -135.5zM612 934h562 q19 118 -45 193.5t-184 75.5q-119 0 -213 -77.5t-120 -191.5z" />
<glyph unicode="f" horiz-adv-x="1128" d="M1175 1536l-61 -360h-292l-196 -1176h-488l196 1176h-208l61 360h207l13 78q43 267 212 398.5t403 131.5q102 0 190 -15.5t128 -27.5l-135 -358q-27 8 -63.5 14.5t-71.5 6.5q-85 0 -123 -38t-50 -104l-14 -86h292z" />
<glyph unicode="g" horiz-adv-x="1806" d="M647 -595q-330 0 -493.5 131.5t-159.5 323.5l468 26q9 -63 71 -102.5t181 -39.5q123 0 214 58.5t112 195.5l45 270h-17q-60 -106 -182.5 -176.5t-292.5 -70.5q-168 0 -294.5 78.5t-182.5 244t-13 426.5q45 270 160 444t269 258t314 84q121 0 200 -41.5t124.5 -106 t63.5 -135.5h14l43 263h487l-256 -1542q-31 -190 -151 -321.5t-306.5 -199.5t-417.5 -68zM819 377q134 0 227.5 104t123.5 289q29 187 -28 295.5t-191 108.5q-136 0 -226.5 -110t-119.5 -294q-30 -184 24 -288.5t190 -104.5z" />
<glyph unicode="h" horiz-adv-x="1789" d="M665 876l-146 -876h-489l340 2048h473l-130 -794h17q74 142 206 222t306 80q241 0 361 -158t76 -419l-164 -979h-489l148 883q20 128 -33 200t-170 72q-116 0 -200 -74t-106 -205z" />
<glyph unicode="i" d="M27 0l256 1536h489l-256 -1536h-489zM562 1716q-104 0 -169 69t-51 165q15 97 98.5 165t186.5 68q104 0 167.5 -68t50.5 -165q-13 -96 -96 -165t-187 -69z" />
<glyph unicode="j" d="M283 1536h489l-266 -1594q-45 -285 -237 -403t-484 -109q-19 0 -40 0.5t-50 3.5l62 370q17 -2 31.5 -2.5t28.5 -0.5q101 0 145.5 37.5t58.5 113.5zM560 1715q-104 0 -169 69t-51 165q15 97 98.5 165t186.5 68q104 0 167.5 -68t50.5 -165q-13 -96 -96 -165t-187 -69z" />
<glyph unicode="k" horiz-adv-x="1673" d="M27 0l340 2048h489l-176 -1062h20l526 550h554l-656 -670l422 -866h-565l-269 581l-119 -119l-77 -462h-489z" />
<glyph unicode="l" d="M856 2048l-340 -2048h-489l340 2048h489z" />
<glyph unicode="m" horiz-adv-x="2608" d="M30 0l256 1536h465l-46 -282h17q71 140 198 221t286 81t259.5 -82t108.5 -220h16q65 137 204 219.5t310 82.5q216 0 329.5 -139.5t72.5 -382.5l-172 -1034h-488l156 922q17 115 -33 175.5t-144 60.5q-100 0 -168 -65.5t-84 -175.5l-155 -917h-471l157 927q16 107 -32 169 t-144 62q-95 0 -166.5 -67.5t-88.5 -181.5l-154 -909h-489z" />
<glyph unicode="n" horiz-adv-x="1786" d="M665 876l-146 -876h-489l256 1536h465l-46 -282h17q72 141 209 221.5t308 80.5q242 0 361.5 -158.5t75.5 -418.5l-164 -979h-489l147 883q21 128 -31 200t-170 72q-115 0 -198.5 -74t-105.5 -205z" />
<glyph unicode="o" horiz-adv-x="1744" d="M743 -29q-242 0 -400 100t-221.5 279t-24.5 416q39 236 161 414t312 277t431 99q242 0 399.5 -100t221.5 -279t25 -417q-39 -235 -161.5 -413t-312 -277t-430.5 -99zM798 340q135 0 228 118.5t124 311.5q31 189 -20.5 306.5t-183.5 117.5q-135 0 -228 -119.5t-124 -311.5 q-31 -190 20 -306.5t184 -116.5z" />
<glyph unicode="p" horiz-adv-x="1802" d="M-69 -576l352 2112h484l-43 -263h15q60 106 180 194.5t302 88.5q161 0 286 -84.5t181.5 -259t11.5 -445.5q-43 -262 -155 -437t-266.5 -263.5t-324.5 -88.5q-174 0 -265.5 82.5t-118.5 188.5h-14l-136 -825h-489zM634 768q-30 -187 26 -298t190 -111q135 0 225.5 111.5 t122.5 297.5q30 185 -23.5 295.5t-190.5 110.5q-134 0 -227 -109t-123 -297z" />
<glyph unicode="q" horiz-adv-x="1802" d="M1428.28 -576l347.316 2112h-484l-44.083 -263h-15q-24.9023 106 -115.599 194.5t-272.696 88.5q-161 0 -313.979 -84.5q-152.979 -84.5 -267.259 -259q-114.279 -174.5 -159.012 -445.5q-43.752 -262 10.3027 -437t179.251 -263.5t295.196 -88.5q174 0 292.816 82.5 q118.817 82.5 180.916 188.5h14l-137.171 -825h489zM1170.3 768q-31.9189 -187 -124.673 -298t-226.754 -111q-135 0 -188.58 111.5q-53.5811 111.5 -23.9932 297.5q31.2568 185 121.345 295.5t227.088 110.5q134 0 190.909 -109q56.9082 -109 24.6582 -297z" />
<glyph unicode="r" horiz-adv-x="1250" d="M27 0l256 1536h475l-47 -280h16q68 152 174.5 226.5t234.5 74.5q122 0 203 -56l-208 -401q-30 14 -65.5 25.5t-79.5 11.5q-114 0 -210.5 -83t-121.5 -220l-138 -834h-489z" />
<glyph unicode="s" horiz-adv-x="1619" d="M1542 1067l-441 -12q1 74 -49.5 120t-137.5 46q-94 0 -168.5 -42.5t-83.5 -108.5q-7 -36 20 -62.5t120 -46.5l288 -56q450 -90 394 -439q-26 -152 -133.5 -263t-272.5 -171.5t-366 -60.5q-337 0 -509 136.5t-161 362.5l476 12q3 -85 57.5 -127.5t148.5 -44.5 q104 -2 178.5 42.5t83.5 111.5q6 43 -28.5 67t-127.5 43l-260 51q-223 43 -323 163t-69 305q38 223 235 343t498 120q322 0 486.5 -131t144.5 -358z" />
<glyph unicode="t" horiz-adv-x="1117" d="M1150 1536l-61 -360h-277l-115 -693q-11 -68 17 -95.5t87 -27.5q27 0 60 6t50 9l16 -353q-39 -11 -104.5 -25.5t-152.5 -18.5q-263 -11 -388 104t-82 347l124 747h-204l61 360h202l61 368h489l-61 -368h278z" />
<glyph unicode="u" horiz-adv-x="1790" d="M1128 663l146 873h488l-256 -1536h-466l47 286h-16q-71 -141 -209 -223.5t-311 -82.5q-237 0 -356 158.5t-76 418.5l164 979h489l-147 -883q-19 -125 34 -197t165 -72q109 0 196 72.5t108 206.5z" />
<glyph unicode="v" horiz-adv-x="1677" d="M1773 1536l-783 -1536h-560l-270 1536h514l108 -1058h16l458 1058h517z" />
<glyph unicode="w" horiz-adv-x="2429" d="M314 0l-144 1536h491l43 -984h13l386 984h479l64 -977h13l365 977h491l-657 -1536h-523l-92 895h-17l-388 -895h-524z" />
<glyph unicode="x" horiz-adv-x="1648" d="M699 1536l168 -506l347 506h493l-557 -768l317 -768h-489l-198 510l-359 -510h-496l574 768l-296 768h496z" />
<glyph unicode="y" horiz-adv-x="1677" d="M210 -599q-99 0 -167 17.5t-107 35.5l169 372q101 -36 177 -25.5t128 92.5l30 53l-280 1590h510l102 -1096h16l468 1096h517l-860 -1688q-96 -187 -270.5 -317t-432.5 -130z" />
<glyph unicode="z" horiz-adv-x="1646" d="M34 0l45 279l855 867l4 10h-688l65 380h1270l-48 -306l-799 -840l-4 -10h684l-61 -380h-1323z" />
<glyph unicode="{" horiz-adv-x="1196" d="M936 -454q-153 0 -285.5 14.5t-226.5 68.5t-134.5 169t-9.5 316l30 188q23 151 -31.5 219.5t-229.5 68.5h-4l72 432h4q173 0 254 68.5t104 219.5l30 189q31 201 109 316t191.5 169t252.5 68.5t292 14.5l-61 -359q-119 0 -183.5 -29t-94 -87.5t-44.5 -149.5l-42 -256 q-12 -76 -55 -146t-135.5 -125.5t-254.5 -86.5l-8 -43q153 -31 227 -86.5t93.5 -125.5t7.5 -146l-42 -256q-15 -90 -5 -149t65.5 -88t174.5 -29z" />
<glyph unicode="|" horiz-adv-x="1080" d="M989 2180l-435 -2619h-430l434 2619h431z" />
<glyph unicode="}" horiz-adv-x="1196" d="M273 2067q153 0 285.5 -14.5t226.5 -68.5t134.5 -169t9.5 -316l-30 -188q-23 -151 31.5 -219.5t229.5 -68.5h4l-72 -432h-4q-173 0 -254 -68.5t-104 -219.5l-30 -189q-31 -201 -109 -316t-191.5 -169t-252.5 -68.5t-292 -14.5l61 359q119 0 183.5 29t94 87.5t44.5 149.5 l42 256q12 76 55 146t135.5 125.5t254.5 86.5l8 43q-153 31 -227 86.5t-93.5 125.5t-7.5 146l42 256q15 90 5 149t-65.5 88t-174.5 29z" />
<glyph unicode="~" horiz-adv-x="1923" d="M167 534q37 297 181.5 463.5t364.5 166.5q92 0 171 -37.5t174 -133.5q47 -46 80 -73t84 -27q68 0 121 54t71 174h364q-39 -295 -187.5 -462.5t-361.5 -167.5q-100 0 -179.5 40.5t-168.5 130.5q-51 51 -80.5 75.5t-81.5 24.5q-67 0 -119.5 -52.5t-69.5 -175.5h-363z" />
<glyph unicode="&#xa1;" horiz-adv-x="957" d="M19 -517l280 1421h408l-189 -1421h-499zM588 1560q109 0 178 -75.5t60 -184.5q-10 -107 -93.5 -181.5t-192.5 -74.5q-104 0 -174 75t-60 181q10 109 95.5 184.5t186.5 75.5z" />
<glyph unicode="&#xa2;" horiz-adv-x="1681" d="M608 -256l38 231q-211 20 -346.5 124t-188 274.5t-15.5 389.5q35 219 144.5 389.5t279.5 275t386 124.5l38 228h193l-38 -228q274 -27 411.5 -193t100.5 -427h-457q8 184 -118 236l-132 -802q145 52 198 236h456q-54 -263 -243.5 -431.5t-475.5 -194.5l-38 -232h-193z M711 369l131 795q-91 -36 -157 -136t-91 -260q-26 -161 6 -262t111 -137z" />
<glyph unicode="&#xa3;" horiz-adv-x="1930" d="M1607 0h-1532l68 402h147q60 20 86.5 73.5t37.5 129.5l28 217h-236l65 378h219l36 282q24 188 128 321t265.5 203t358.5 70q322 0 469 -158.5t105 -427.5l-463 -6q17 118 -35 160t-136 42q-78 0 -131 -51t-69 -153l-36 -282h442l-66 -378h-425l-24 -185 q-20 -146 -110 -235h876z" />
<glyph unicode="&#xa4;" horiz-adv-x="2193" d="M259 836q23 141 84 267.5t151 231.5l-169 202l236 206l171 -202q117 74 249 114.5t269 40.5q138 0 258 -42t212 -118l244 207l171 -206l-247 -208q55 -103 74.5 -228.5t-3.5 -264.5q-22 -134 -79 -255t-140 -222l166 -192l-240 -206l-156 186q-121 -83 -260.5 -129 t-283.5 -46q-145 0 -268.5 45.5t-216.5 127.5l-219 -184l-167 206l225 188q-50 103 -66.5 224.5t5.5 256.5zM527 836q-29 -166 26 -300t174.5 -212t284.5 -78q160 0 304.5 78t246 212t130.5 300q28 169 -29 302t-176.5 210.5t-279.5 77.5q-165 0 -310 -77.5t-244 -210.5 t-127 -302z" />
<glyph unicode="&#xa5;" horiz-adv-x="1634" d="M752 2048l160 -710l394 710h500l-602 -980h289l-44 -270h-391l-21 -126h392l-47 -270h-390l-67 -402h-488l67 402h-433l47 270h431l21 126h-432l44 270h343l-273 980h500z" />
<glyph unicode="&#xa6;" horiz-adv-x="1046" d="M273 578h434l-159 -962h-434zM952 2048l-159 -958h-435l160 958h434z" />
<glyph unicode="&#xa7;" horiz-adv-x="1709" d="M1574 1532h-424q11 59 -31.5 99.5t-134.5 40.5q-61 0 -122.5 -23t-71.5 -94q-13 -66 42.5 -110.5t107.5 -62.5l358 -161q37 -16 90.5 -49t100.5 -87.5t66.5 -136t-12.5 -196.5q-25 -87 -79 -138.5t-111 -77t-92 -35.5l-10 -4q77 -77 108.5 -172.5t11.5 -215.5 q-27 -161 -127 -278t-250.5 -180.5t-330.5 -63.5q-193 0 -328 69.5t-195.5 196t-32.5 295.5h424q-13 -77 41 -119t166 -35q65 3 128.5 28.5t75.5 86.5q10 66 -45 108.5t-102 64.5l-354 157q-40 17 -95 49.5t-102 87.5t-66.5 137.5t11.5 198.5q25 88 77 139t110.5 76.5 t101.5 36.5v2q-69 77 -101.5 172t-12.5 217q25 150 121 267.5t243 185.5t324 68q183 0 308.5 -71t182 -193.5t31.5 -279.5zM1144 723q17 39 -11.5 79.5t-113.5 75.5l-294 125q-46 20 -85 0t-55 -62q-16 -38 14.5 -80t114.5 -75l297 -127q40 -16 78.5 2.5t54.5 61.5z" />
<glyph unicode="&#xa8;" horiz-adv-x="1453" d="M1227 1731q-104 0 -167.5 73t-47.5 174q14 80 81.5 134t150.5 54q104 0 165 -72.5t44 -173.5q-11 -79 -77 -134t-149 -55zM603 1731q-104 0 -167.5 73.5t-47.5 173.5q14 80 81.5 134t150.5 54q104 0 165 -72.5t44 -173.5q-11 -79 -77 -134t-149 -55z" />
<glyph unicode="&#xa9;" horiz-adv-x="2461" d="M256 1004q36 218 146.5 404.5t273 327t358.5 218.5t404 78q210 0 381.5 -78t288.5 -218.5t165 -327t12 -404.5q-36 -219 -146 -407t-273 -328t-360.5 -218.5t-407.5 -78.5q-208 0 -378 78.5t-286.5 218.5t-165 328t-12.5 407zM430 1004q-39 -244 42.5 -438.5t253 -308 t400.5 -113.5q174 0 338 65t299 182t226 273.5t121 339.5q41 242 -40.5 436t-254 307t-405.5 113q-172 0 -334.5 -65t-297.5 -181.5t-226.5 -272t-121.5 -337.5zM1476 820h226q-36 -216 -185 -324t-370 -108q-226 0 -337.5 147.5t-73.5 384.5l28 164q27 158 108.5 278 t205 187t273.5 67q221 0 334 -108t77 -324h-225q25 132 -32.5 190t-185.5 58q-136 0 -219 -97.5t-111 -250.5l-28 -164q-23 -153 29.5 -250.5t188.5 -97.5q128 0 202.5 56.5t94.5 191.5z" />
<glyph unicode="&#xaa;" horiz-adv-x="1408" d="M937 1063q-51 -46 -127.5 -78.5t-178.5 -32.5q-169 0 -247 85.5t-54 226.5q24 153 158.5 235t381.5 82h143l12 71q12 83 -20.5 129.5t-118.5 46.5q-92 0 -149.5 -35t-69.5 -101l-245 17q24 140 160.5 231.5t335.5 91.5q188 0 287 -95.5t69 -284.5l-72 -432 q-9 -56 -13.5 -120t9.5 -131h-254q-6 47 -7 94zM986 1421h-144q-123 0 -188 -46t-74 -106q-9 -55 25.5 -87.5t120.5 -32.5q57 0 120.5 25t106.5 60z" />
<glyph unicode="&#xab;" horiz-adv-x="1843" d="M913 220h-445l-304 600l2 8h-2l4 20l504 600h445l-482 -612zM1620 220h-445l-304 600l2 8h-2l4 20l504 600h445l-482 -612z" />
<glyph unicode="&#xac;" horiz-adv-x="1670" d="M1491 1108l-18 -108h2l-80 -484h-285l59 356h-911l40 236h1193z" />
<glyph unicode="&#xad;" horiz-adv-x="1328" d="M1178 1017l-61 -377h-947l61 377h947z" />
<glyph unicode="&#xae;" horiz-adv-x="2461" d="M256 1004q36 218 146.5 404.5t273 327t358.5 218.5t404 78q210 0 381.5 -78t288.5 -218.5t165 -327t12 -404.5q-36 -219 -146 -407t-273 -328t-360.5 -218.5t-407.5 -78.5q-208 0 -378 78.5t-286.5 218.5t-165 328t-12.5 407zM430 1004q-39 -244 42.5 -438.5t253 -308 t400.5 -113.5q174 0 338 65t299 182t226 273.5t121 339.5q41 242 -40.5 436t-254 307t-405.5 113q-172 0 -334.5 -65t-297.5 -181.5t-226.5 -272t-121.5 -337.5zM1270 900h-221l-77 -464h-218l196 1168h401q215 0 324.5 -94t78.5 -271q-23 -149 -188 -231q74 -45 95 -123.5 t5 -176.5l-16 -76q-17 -112 -4 -176l-4 -20h-222q-6 24 -2 69.5t9 83.5q2 13 3 24t2 19l16 76q16 96 -24 144t-154 48zM1080 1084h179q101 0 186 40t99 120q16 99 -34.5 137.5t-190.5 38.5h-183z" />
<glyph unicode="&#xaf;" horiz-adv-x="1702" d="M1555 2048l-38 -242h-991l39 242h990z" />
<glyph unicode="&#xb0;" horiz-adv-x="1299" d="M694 1048q-139 0 -242 68t-150.5 182t-23.5 252q21 139 107 252.5t211.5 181t265.5 67.5q137 0 239.5 -67.5t152 -181t27.5 -252.5q-25 -138 -112 -252t-212 -182t-263 -68zM748 1360q77 0 141 55.5t80 134.5q10 79 -36 134t-123 55q-79 0 -144.5 -55t-75.5 -134 q-16 -79 30 -134.5t128 -55.5z" />
<glyph unicode="&#xb1;" horiz-adv-x="1923" d="M262 910l61 365h521l54 325h403l-54 -325h524l-61 -365h-524l-54 -324h-403l54 324h-521zM122 70l62 378h1448l-62 -378h-1448z" />
<glyph unicode="&#xb2;" horiz-adv-x="1193" d="M158 1024l36 242l563 381q85 60 145 107t72 114q10 66 -38 100.5t-129 34.5q-78 0 -139 -37.5t-76 -119.5h-324q29 197 189 309.5t383 112.5q238 0 350 -119t88 -285q-18 -121 -107.5 -228t-311.5 -226l-173 -100l-3 -11h513l-44 -275h-994z" />
<glyph unicode="&#xb3;" horiz-adv-x="1253" d="M681 1008q-242 0 -379.5 103.5t-113.5 272.5h338q-5 -47 42.5 -72t123.5 -25q94 0 159.5 36t75.5 94q20 107 -189 107h-161l37 250h147q91 0 150.5 39t71.5 97q8 41 -21 67t-109 26q-73 0 -145.5 -27t-82.5 -77h-323q20 110 100.5 193t201 129.5t259.5 46.5 q154 0 258.5 -53t152.5 -139t32 -186q-15 -103 -95 -157.5t-201 -68.5v-11q135 -11 207.5 -91t54.5 -200q-25 -156 -186.5 -255t-404.5 -99z" />
<glyph unicode="&#xb4;" horiz-adv-x="1400" d="M542 1731l276 451h433l-376 -451h-333z" />
<glyph unicode="&#xb5;" horiz-adv-x="1918" d="M-62 -550l345 2086h489l-146 -873q-19 -124 56 -201.5t214 -77.5q140 0 240.5 77.5t120.5 201.5l145 873h489l-256 -1536h-466l37 215h-12q-57 -91 -152 -144t-208 -53q-109 0 -187.5 53t-104.5 144h-12l-126 -765h-466z" />
<glyph unicode="&#xb6;" horiz-adv-x="1726" d="M1074 0l280 1684h-250l-150 -924h-120q-227 0 -370 83.5t-200 229t-27 331.5q32 184 137 329.5t275 230t397 84.5h737l-340 -2048h-369z" />
<glyph unicode="&#xb7;" horiz-adv-x="854" d="M327 674q-109 0 -178 75.5t-60 184.5q10 107 93.5 181.5t192.5 74.5q104 0 174 -75t60 -181q-10 -109 -95.5 -184.5t-186.5 -75.5z" />
<glyph unicode="&#xb8;" horiz-adv-x="1155" d="M358 8h196l-32 -90q107 -16 162.5 -80.5t37.5 -164.5q-24 -155 -188 -246t-431 -91l33 201q280 0 310 125q23 113 -171 140z" />
<glyph unicode="&#xb9;" horiz-adv-x="915" d="M962 2252l-207 -1228h-330l141 825h-12q-24 -34 -101 -52.5t-189 -16.5l37 268q137 -1 228 66.5t107 137.5h326z" />
<glyph unicode="&#xba;" horiz-adv-x="1398" d="M316 1436l16 105q24 144 103 254.5t200.5 173.5t271.5 63q230 0 340.5 -138t74.5 -353l-16 -105q-36 -213 -190.5 -350t-383.5 -137q-232 0 -342 137t-74 350zM582 1541l-16 -105q-21 -123 28 -203.5t173 -80.5q122 0 195.5 80.5t94.5 203.5l16 105q21 120 -26 203.5 t-172 83.5q-121 0 -196.5 -83.5t-96.5 -203.5z" />
<glyph unicode="&#xbb;" horiz-adv-x="1856" d="M35 220l482 612l-278 616h445l304 -600l-2 -8h2l-4 -20l-504 -600h-445zM755 220l482 612l-278 616h445l304 -600l-2 -8h2l-4 -20l-504 -600h-445z" />
<glyph unicode="&#xbc;" horiz-adv-x="2495" d="M296 0l1513 2048h274l-1513 -2048h-274zM854 2048l-180 -1088h-298l127 723h-12q-47 -55 -260 -51l33 238q131 -4 210 58.5t95 119.5h285zM1286 167l37 241l619 680h382l-112 -676h156l-34 -245h-162l-28 -167h-290l28 167h-596zM1928 412l60 355h-6l-353 -345v-10h299z " />
<glyph unicode="&#xbd;" horiz-adv-x="2543" d="M296 0l1513 2048h274l-1513 -2048h-274zM854 2048l-180 -1088h-298l127 723h-12q-47 -55 -260 -51l33 238q131 -4 210 58.5t95 119.5h285zM1446 0l37 216l502 338q71 48 129 91.5t68 100.5q9 58 -33.5 87.5t-118.5 29.5q-69 0 -123.5 -30.5t-69.5 -104.5h-291 q27 170 169 273t347 103q208 0 311.5 -106t82.5 -251q-15 -106 -95.5 -204t-284.5 -200l-157 -84l-3 -11h458l-37 -248h-891z" />
<glyph unicode="&#xbe;" horiz-adv-x="2760" d="M560 0l1513 2048h274l-1513 -2048h-274zM1551 167l37 241l619 680h382l-112 -676h156l-34 -245h-162l-28 -167h-290l28 167h-596zM2193 412l60 355h-6l-353 -345v-10h299zM608 944q-140 0 -246.5 40.5t-161 115t-40.5 176.5h304q-2 -40 43.5 -60t111.5 -20q81 0 142.5 30 t71.5 85q16 87 -174 87h-152l33 228h141q74 0 130 32.5t68 87.5q14 77 -120 77q-66 0 -130.5 -21t-73.5 -62h-290q17 96 91 169t183 114t231 41q138 0 232 -48.5t137 -125t29 -159.5q-15 -94 -87.5 -144t-172.5 -62v-8q129 -11 187.5 -86t42.5 -174q-23 -142 -170 -227.5 t-360 -85.5z" />
<glyph unicode="&#xbf;" horiz-adv-x="1636" d="M1115 883l-7 -43q-29 -169 -74.5 -269.5t-110.5 -162t-151 -112.5q-103 -61 -178 -125t-89 -155q-14 -89 38 -143.5t140 -54.5q90 0 169.5 59t96.5 164h460q-38 -210 -154 -344t-283 -198.5t-356 -64.5q-205 0 -354.5 64t-221 188.5t-41.5 306.5q30 179 135.5 296 t263.5 200q124 67 193 143t92 208l7 43h425zM988 1539q109 0 178 -75.5t60 -184.5q-10 -107 -93.5 -181.5t-192.5 -74.5q-104 0 -174 75t-60 181q10 109 95.5 184.5t186.5 75.5z" />
<glyph unicode="&#xc0;" horiz-adv-x="2173" d="M470 0h-532l1031 2048h659l351 -2048h-532l-63 430h-707zM857 806h472l-107 726h-16zM1504 2243h-333l-229 451h433z" />
<glyph unicode="&#xc1;" horiz-adv-x="2173" d="M470 0h-532l1031 2048h659l351 -2048h-532l-63 430h-707zM857 806h472l-107 726h-16zM1165 2243l276 451h433l-376 -451h-333z" />
<glyph unicode="&#xc2;" horiz-adv-x="2173" d="M470 0h-532l1031 2048h659l351 -2048h-532l-63 430h-707zM857 806h472l-107 726h-16zM1131.84 2232l236.818 232l160.182 -232h409l2.30371 13l-356.66 448h-351l-508.34 -448l-2.30371 -13h410z" />
<glyph unicode="&#xc3;" horiz-adv-x="2173" d="M470 0h-532l1031 2048h659l351 -2048h-532l-63 430h-707zM857 806h472l-107 726h-16zM1055 2248l-254 2q34 203 147 307.5t252 104.5q74 0 123 -23.5t84.5 -55t67.5 -55t72 -23.5q57 0 91.5 42.5t46.5 112.5l249 -3q-36 -202 -149.5 -306.5t-251.5 -106.5 q-76 0 -124 23.5t-81.5 54.5t-64.5 54.5t-74 23.5q-49 0 -85.5 -39.5t-48.5 -112.5z" />
<glyph unicode="&#xc4;" horiz-adv-x="2173" d="M470 0h-532l1031 2048h659l351 -2048h-532l-63 430h-707zM857 806h472l-107 726h-16zM1675 2243q-104 0 -167.5 73t-47.5 174q14 80 81.5 134t150.5 54q104 0 165 -72.5t44 -173.5q-11 -79 -77 -134t-149 -55zM1051 2243q-104 0 -167.5 73.5t-47.5 173.5q14 80 81.5 134 t150.5 54q104 0 165 -72.5t44 -173.5q-11 -79 -77 -134t-149 -55z" />
<glyph unicode="&#xc5;" horiz-adv-x="2173" d="M470 0h-532l1031 2048h659l351 -2048h-532l-63 430h-707zM857 806h472l-107 726h-16zM1316 2149q-133 0 -212 91t-58 218q14 86 68 156t133.5 111t168.5 41q136 0 217.5 -90t56.5 -218q-24 -129 -131 -219t-243 -90zM1346 2330q55 0 103 38t54 90q7 55 -26 91.5t-91 36.5 q-54 0 -98.5 -37.5t-54.5 -90.5q-10 -52 23 -90t90 -38z" />
<glyph unicode="&#xc6;" horiz-adv-x="2938" d="M-62 0l1178 2048h1879l-68 -402h-933l-68 -420h860l-68 -403h-860l-68 -421h933l-68 -402h-1428l72 430h-578l-239 -430h-544zM930 806h431l125 747h-141z" />
<glyph unicode="&#xc7;" horiz-adv-x="2141" d="M2101 1306h-494q8 155 -75 245.5t-244 90.5q-232 0 -396 -171t-215 -476q-47 -295 48 -442t301 -147q176 0 304 84.5t178 229.5h498q-37 -136 -121 -268.5t-212.5 -241t-297.5 -173.5t-376 -65q-284 0 -488 127t-294.5 368.5t-34.5 585.5q55 333 218 561t396 345t498 117 q256 0 442.5 -90.5t283 -262.5t81.5 -417zM876 11h196l-32 -90q107 -16 162.5 -80.5t37.5 -164.5q-24 -155 -188 -246t-431 -91l33 201q280 0 310 125q23 113 -171 140z" />
<glyph unicode="&#xc8;" horiz-adv-x="1738" d="M27 0l340 2048h1428l-68 -402h-933l-68 -420h860l-68 -403h-860l-68 -421h933l-68 -402h-1428zM1291 2243h-333l-229 451h433z" />
<glyph unicode="&#xc9;" horiz-adv-x="1738" d="M27 0l340 2048h1428l-68 -402h-933l-68 -420h860l-68 -403h-860l-68 -421h933l-68 -402h-1428zM952 2243l276 451h433l-376 -451h-333z" />
<glyph unicode="&#xca;" horiz-adv-x="1738" d="M27 0l340 2048h1428l-68 -402h-933l-68 -420h860l-68 -403h-860l-68 -421h933l-68 -402h-1428zM918.837 2232l236.818 232l160.182 -232h409l2.30371 13l-356.66 448h-351l-508.34 -448l-2.30371 -13h410z" />
<glyph unicode="&#xcb;" horiz-adv-x="1738" d="M27 0l340 2048h1428l-68 -402h-933l-68 -420h860l-68 -403h-860l-68 -421h933l-68 -402h-1428zM1462 2243q-104 0 -167.5 73t-47.5 174q14 80 81.5 134t150.5 54q104 0 165 -72.5t44 -173.5q-11 -79 -77 -134t-149 -55zM838 2243q-104 0 -167.5 73.5t-47.5 173.5 q14 80 81.5 134t150.5 54q104 0 165 -72.5t44 -173.5q-11 -79 -77 -134t-149 -55z" />
<glyph unicode="&#xcc;" horiz-adv-x="805" d="M862 2048l-340 -2048h-495l340 2048h495zM820 2243h-333l-229 451h433z" />
<glyph unicode="&#xcd;" horiz-adv-x="805" d="M862 2048l-340 -2048h-495l340 2048h495zM482 2243l276 451h433l-376 -451h-333z" />
<glyph unicode="&#xce;" horiz-adv-x="805" d="M862 2048l-340 -2048h-495l340 2048h495zM448.837 2232l236.818 232l160.182 -232h409l2.30371 13l-356.66 448h-351l-508.34 -448l-2.30371 -13h410z" />
<glyph unicode="&#xcf;" horiz-adv-x="805" d="M862 2048l-340 -2048h-495l340 2048h495zM992 2243q-104 0 -167.5 73t-47.5 174q14 80 81.5 134t150.5 54q104 0 165 -72.5t44 -173.5q-11 -79 -77 -134t-149 -55zM368 2243q-104 0 -167.5 73.5t-47.5 173.5q14 80 81.5 134t150.5 54q104 0 165 -72.5t44 -173.5 q-11 -79 -77 -134t-149 -55z" />
<glyph unicode="&#xd0;" horiz-adv-x="2056" d="M-81 952l48 273h1037l-48 -273h-1037zM795 0h-768l340 2048h745q313 0 521 -126.5t294.5 -361.5t32.5 -561q-52 -314 -209 -538t-400.5 -342.5t-555.5 -118.5zM592 422h234q258 0 425.5 144t222.5 484q54 323 -59 449.5t-377 126.5h-246z" />
<glyph unicode="&#xd1;" horiz-adv-x="2053" d="M2110 2048l-340 -2048h-420l-617 1182h-14l-197 -1182h-495l340 2048h426l612 -1180h17l194 1180h494zM996 2238l-254 2q34 203 147 307.5t252 104.5q74 0 123 -23.5t84.5 -55t67.5 -55t72 -23.5q57 0 91.5 42.5t46.5 112.5l249 -3q-36 -202 -149.5 -306.5t-251.5 -106.5 q-76 0 -124 23.5t-81.5 54.5t-64.5 54.5t-74 23.5q-49 0 -85.5 -39.5t-48.5 -112.5z" />
<glyph unicode="&#xd2;" horiz-adv-x="2221" d="M2125 992q-55 -331 -218.5 -558.5t-397.5 -344.5t-502 -117q-283 0 -490 126t-300.5 367t-36.5 585q54 331 217.5 560t399 347.5t505.5 118.5q282 0 488 -127t299 -369t36 -588zM1630 1050q47 290 -44.5 441t-302.5 151q-235 0 -396.5 -170.5t-211.5 -479.5 q-52 -292 45 -439t305 -147q232 0 392.5 167.5t212.5 476.5zM1527 2243h-333l-229 451h433z" />
<glyph unicode="&#xd3;" horiz-adv-x="2221" d="M2125 992q-55 -331 -218.5 -558.5t-397.5 -344.5t-502 -117q-283 0 -490 126t-300.5 367t-36.5 585q54 331 217.5 560t399 347.5t505.5 118.5q282 0 488 -127t299 -369t36 -588zM1630 1050q47 290 -44.5 441t-302.5 151q-235 0 -396.5 -170.5t-211.5 -479.5 q-52 -292 45 -439t305 -147q232 0 392.5 167.5t212.5 476.5zM1188 2243l276 451h433l-376 -451h-333z" />
<glyph unicode="&#xd4;" horiz-adv-x="2221" d="M2125 992q-55 -331 -218.5 -558.5t-397.5 -344.5t-502 -117q-283 0 -490 126t-300.5 367t-36.5 585q54 331 217.5 560t399 347.5t505.5 118.5q282 0 488 -127t299 -369t36 -588zM1630 1050q47 290 -44.5 441t-302.5 151q-235 0 -396.5 -170.5t-211.5 -479.5 q-52 -292 45 -439t305 -147q232 0 392.5 167.5t212.5 476.5zM1154.84 2232l236.818 232l160.182 -232h409l2.30371 13l-356.66 448h-351l-508.34 -448l-2.30371 -13h410z" />
<glyph unicode="&#xd5;" horiz-adv-x="2221" d="M2125 992q-55 -331 -218.5 -558.5t-397.5 -344.5t-502 -117q-283 0 -490 126t-300.5 367t-36.5 585q54 331 217.5 560t399 347.5t505.5 118.5q282 0 488 -127t299 -369t36 -588zM1630 1050q47 290 -44.5 441t-302.5 151q-235 0 -396.5 -170.5t-211.5 -479.5 q-52 -292 45 -439t305 -147q232 0 392.5 167.5t212.5 476.5zM1078 2248l-254 2q34 203 147 307.5t252 104.5q74 0 123 -23.5t84.5 -55t67.5 -55t72 -23.5q57 0 91.5 42.5t46.5 112.5l249 -3q-36 -202 -149.5 -306.5t-251.5 -106.5q-76 0 -124 23.5t-81.5 54.5t-64.5 54.5 t-74 23.5q-49 0 -85.5 -39.5t-48.5 -112.5z" />
<glyph unicode="&#xd6;" horiz-adv-x="2221" d="M2125 992q-55 -331 -218.5 -558.5t-397.5 -344.5t-502 -117q-283 0 -490 126t-300.5 367t-36.5 585q54 331 217.5 560t399 347.5t505.5 118.5q282 0 488 -127t299 -369t36 -588zM1630 1050q47 290 -44.5 441t-302.5 151q-235 0 -396.5 -170.5t-211.5 -479.5 q-52 -292 45 -439t305 -147q232 0 392.5 167.5t212.5 476.5zM1698 2243q-104 0 -167.5 73t-47.5 174q14 80 81.5 134t150.5 54q104 0 165 -72.5t44 -173.5q-11 -79 -77 -134t-149 -55zM1074 2243q-104 0 -167.5 73.5t-47.5 173.5q14 80 81.5 134t150.5 54q104 0 165 -72.5 t44 -173.5q-11 -79 -77 -134t-149 -55z" />
<glyph unicode="&#xd7;" horiz-adv-x="1923" d="M1305 67l-384 458l-535 -458l-249 299l534 459l-383 457l349 302l383 -459l535 459l250 -302l-534 -457l383 -459z" />
<glyph unicode="&#xd8;" horiz-adv-x="2222" d="M368 -103l-190 142l169 202q-117 138 -164 341.5t-3 466.5q54 331 217.5 560t399 347.5t505.5 118.5q275 0 476 -120l160 192l190 -142l-169 -203q117 -138 163.5 -342.5t2.5 -468.5q-55 -331 -218.5 -558.5t-397.5 -344.5t-502 -117q-276 0 -478 118zM680 640l798 956 q-80 45 -195 45q-235 0 -396.5 -170.5t-211.5 -479.5q-37 -211 5 -351zM1630 1049q34 211 -7 351l-794 -951q81 -44 196 -44q232 0 392.5 167.5t212.5 476.5z" />
<glyph unicode="&#xd9;" horiz-adv-x="2043" d="M1609 2048h491l-224 -1353q-38 -233 -174 -394t-345.5 -244t-466.5 -83q-259 0 -440 83t-263 244t-44 394l224 1353h495l-221 -1334q-22 -139 66 -221.5t254 -82.5q168 0 286.5 82.5t140.5 221.5zM1439 2243h-333l-229 451h433z" />
<glyph unicode="&#xda;" horiz-adv-x="2043" d="M1609 2048h491l-224 -1353q-38 -233 -174 -394t-345.5 -244t-466.5 -83q-259 0 -440 83t-263 244t-44 394l224 1353h495l-221 -1334q-22 -139 66 -221.5t254 -82.5q168 0 286.5 82.5t140.5 221.5zM1100 2243l276 451h433l-376 -451h-333z" />
<glyph unicode="&#xdb;" horiz-adv-x="2043" d="M1609 2048h491l-224 -1353q-38 -233 -174 -394t-345.5 -244t-466.5 -83q-259 0 -440 83t-263 244t-44 394l224 1353h495l-221 -1334q-22 -139 66 -221.5t254 -82.5q168 0 286.5 82.5t140.5 221.5zM1066.84 2232l236.818 232l160.182 -232h409l2.30371 13l-356.66 448 h-351l-508.34 -448l-2.30371 -13h410z" />
<glyph unicode="&#xdc;" horiz-adv-x="2043" d="M1609 2048h491l-224 -1353q-38 -233 -174 -394t-345.5 -244t-466.5 -83q-259 0 -440 83t-263 244t-44 394l224 1353h495l-221 -1334q-22 -139 66 -221.5t254 -82.5q168 0 286.5 82.5t140.5 221.5zM1610 2243q-104 0 -167.5 73t-47.5 174q14 80 81.5 134t150.5 54 q104 0 165 -72.5t44 -173.5q-11 -79 -77 -134t-149 -55zM986 2243q-104 0 -167.5 73.5t-47.5 173.5q14 80 81.5 134t150.5 54q104 0 165 -72.5t44 -173.5q-11 -79 -77 -134t-149 -55z" />
<glyph unicode="&#xdd;" horiz-adv-x="2096" d="M265 2048h553l290 -857h21l573 857h553l-975 -1364l-114 -684h-492l115 684zM1127 2243l276 451h433l-376 -451h-333z" />
<glyph unicode="&#xde;" horiz-adv-x="1926" d="M367 2048h495l-60 -360h268q257 0 421 -82t232 -226.5t36 -330.5q-30 -186 -146 -329.5t-306.5 -225t-447.5 -81.5h-268l-69 -413h-495zM652 783h269q175 0 261 81t104 181q11 68 -11 129.5t-85.5 100.5t-180.5 39h-269z" />
<glyph unicode="&#xdf;" horiz-adv-x="1921" d="M27 0l249 1502q30 180 142.5 308.5t291 197t404.5 68.5q209 0 374.5 -62t251.5 -187t54 -314q-24 -155 -117.5 -265t-234.5 -145l-4 -23q200 -12 292 -155.5t56 -360.5q-32 -186 -140 -311.5t-271.5 -189t-363.5 -63.5h-285l65 390h193q126 0 212.5 62t101.5 166 q17 108 -55 170.5t-214 62.5h-151l58 368h99q95 0 163 64.5t84 158.5q19 102 -38.5 167t-177.5 65q-125 0 -209.5 -69t-104.5 -187l-236 -1418h-489z" />
<glyph unicode="&#xe0;" horiz-adv-x="1649" d="M456 -26q-219 0 -343 112.5t-86 339.5q29 170 123.5 270.5t232 149t294.5 61.5q199 17 287 42t101 95v5q12 77 -33 119t-135 42q-96 0 -164 -42t-95 -116l-448 16q63 210 260.5 349t507.5 139q194 0 338 -60.5t214 -174.5t43 -277l-175 -1044h-460l36 214h-12 q-165 -240 -486 -240zM662 294q116 0 210 70t113 182l23 146q-43 -22 -120.5 -36.5t-145.5 -25.5q-108 -16 -172.5 -60.5t-75.5 -119.5q-12 -75 35 -115.5t133 -40.5zM1172 1731h-333l-229 451h433z" />
<glyph unicode="&#xe1;" horiz-adv-x="1649" d="M456 -26q-219 0 -343 112.5t-86 339.5q29 170 123.5 270.5t232 149t294.5 61.5q199 17 287 42t101 95v5q12 77 -33 119t-135 42q-96 0 -164 -42t-95 -116l-448 16q63 210 260.5 349t507.5 139q194 0 338 -60.5t214 -174.5t43 -277l-175 -1044h-460l36 214h-12 q-165 -240 -486 -240zM662 294q116 0 210 70t113 182l23 146q-43 -22 -120.5 -36.5t-145.5 -25.5q-108 -16 -172.5 -60.5t-75.5 -119.5q-12 -75 35 -115.5t133 -40.5zM833 1731l276 451h433l-376 -451h-333z" />
<glyph unicode="&#xe2;" horiz-adv-x="1649" d="M456 -26q-219 0 -343 112.5t-86 339.5q29 170 123.5 270.5t232 149t294.5 61.5q199 17 287 42t101 95v5q12 77 -33 119t-135 42q-96 0 -164 -42t-95 -116l-448 16q63 210 260.5 349t507.5 139q194 0 338 -60.5t214 -174.5t43 -277l-175 -1044h-460l36 214h-12 q-165 -240 -486 -240zM662 294q116 0 210 70t113 182l23 146q-43 -22 -120.5 -36.5t-145.5 -25.5q-108 -16 -172.5 -60.5t-75.5 -119.5q-12 -75 35 -115.5t133 -40.5zM799.837 1720l236.818 232l160.182 -232h409l2.30371 13l-356.66 448h-351l-508.34 -448l-2.30371 -13 h410z" />
<glyph unicode="&#xe3;" horiz-adv-x="1649" d="M456 -26q-219 0 -343 112.5t-86 339.5q29 170 123.5 270.5t232 149t294.5 61.5q199 17 287 42t101 95v5q12 77 -33 119t-135 42q-96 0 -164 -42t-95 -116l-448 16q63 210 260.5 349t507.5 139q194 0 338 -60.5t214 -174.5t43 -277l-175 -1044h-460l36 214h-12 q-165 -240 -486 -240zM662 294q116 0 210 70t113 182l23 146q-43 -22 -120.5 -36.5t-145.5 -25.5q-108 -16 -172.5 -60.5t-75.5 -119.5q-12 -75 35 -115.5t133 -40.5zM722 1726l-254 2q34 203 147 307.5t252 104.5q74 0 123 -23.5t84.5 -55t67.5 -55t72 -23.5 q57 0 91.5 42.5t46.5 112.5l249 -3q-36 -202 -149.5 -306.5t-251.5 -106.5q-76 0 -124 23.5t-81.5 54.5t-64.5 54.5t-74 23.5q-49 0 -85.5 -39.5t-48.5 -112.5z" />
<glyph unicode="&#xe4;" horiz-adv-x="1649" d="M456 -26q-219 0 -343 112.5t-86 339.5q29 170 123.5 270.5t232 149t294.5 61.5q199 17 287 42t101 95v5q12 77 -33 119t-135 42q-96 0 -164 -42t-95 -116l-448 16q63 210 260.5 349t507.5 139q194 0 338 -60.5t214 -174.5t43 -277l-175 -1044h-460l36 214h-12 q-165 -240 -486 -240zM662 294q116 0 210 70t113 182l23 146q-43 -22 -120.5 -36.5t-145.5 -25.5q-108 -16 -172.5 -60.5t-75.5 -119.5q-12 -75 35 -115.5t133 -40.5zM1343 1731q-104 0 -167.5 73t-47.5 174q14 80 81.5 134t150.5 54q104 0 165 -72.5t44 -173.5 q-11 -79 -77 -134t-149 -55zM719 1731q-104 0 -167.5 73.5t-47.5 173.5q14 80 81.5 134t150.5 54q104 0 165 -72.5t44 -173.5q-11 -79 -77 -134t-149 -55z" />
<glyph unicode="&#xe5;" horiz-adv-x="1649" d="M456 -26q-219 0 -343 112.5t-86 339.5q29 170 123.5 270.5t232 149t294.5 61.5q199 17 287 42t101 95v5q12 77 -33 119t-135 42q-96 0 -164 -42t-95 -116l-448 16q63 210 260.5 349t507.5 139q194 0 338 -60.5t214 -174.5t43 -277l-175 -1044h-460l36 214h-12 q-165 -240 -486 -240zM662 294q116 0 210 70t113 182l23 146q-43 -22 -120.5 -36.5t-145.5 -25.5q-108 -16 -172.5 -60.5t-75.5 -119.5q-12 -75 35 -115.5t133 -40.5zM1011 1698q-139 0 -226 95t-72 229q10 90 63.5 164.5t135 118.5t173.5 44q139 0 225.5 -96t71.5 -231 q-10 -89 -63.5 -163t-134 -117.5t-173.5 -43.5zM1034 1886q60 0 105.5 40.5t52.5 95.5q7 56 -30 97.5t-97 41.5q-62 0 -108 -41.5t-53 -97.5q-7 -55 30.5 -95.5t99.5 -40.5z" />
<glyph unicode="&#xe6;" horiz-adv-x="2562" d="M1641 -29q-182 0 -318.5 68.5t-190.5 202.5h-9q-88 -129 -264.5 -198.5t-370.5 -69.5q-245 0 -372 112.5t-89 339.5q29 170 123.5 270.5t232 149t294.5 61.5q201 17 288 42t100 95v5q12 77 -34 119t-136 42q-96 0 -163 -42t-94 -116l-448 16q65 210 261.5 349t516.5 139 q135 0 237 -44.5t147 -141.5q109 98 234 142t269 44q218 0 370 -91t218 -265.5t24 -427.5l-19 -122h-1024l-2 -13q-22 -141 44.5 -227t207.5 -86q95 0 172.5 40t119.5 117l447 -13q-54 -151 -167.5 -262.5t-269 -173t-335.5 -61.5zM662 294q116 0 210 70t113 182l23 146 q-43 -22 -120.5 -36.5t-145.5 -25.5q-108 -16 -172.5 -60.5t-75.5 -119.5q-12 -75 35 -115.5t133 -40.5zM1471 934h567q19 118 -46.5 193.5t-185.5 75.5q-122 0 -216 -77.5t-119 -191.5z" />
<glyph unicode="&#xe7;" horiz-adv-x="1681" d="M740 -29q-244 0 -401 100.5t-219.5 279t-23.5 412.5q38 236 161 414.5t314 278.5t432 100q320 0 484 -170t124 -454h-457q5 117 -48.5 184.5t-156.5 67.5q-130 0 -226.5 -106.5t-128.5 -309.5q-33 -205 26.5 -311.5t187.5 -106.5q102 0 180.5 65.5t113.5 186.5h456 q-39 -190 -150 -332t-281 -220.5t-387 -78.5zM656 8h196l-32 -90q107 -16 162.5 -80.5t37.5 -164.5q-24 -155 -188 -246t-431 -91l33 201q280 0 310 125q23 113 -171 140z" />
<glyph unicode="&#xe8;" horiz-adv-x="1698" d="M741 -29q-361 0 -534 211.5t-111 579.5q40 238 163.5 416.5t311.5 278t419 99.5q218 0 370.5 -91t218 -265.5t23.5 -427.5l-19 -122h-1023l-3 -18q-23 -146 43 -227t209 -81q95 0 173 40t120 117l446 -13q-82 -226 -292.5 -361.5t-514.5 -135.5zM612 934h562 q19 118 -45 193.5t-184 75.5q-119 0 -213 -77.5t-120 -191.5zM1179 1731h-333l-229 451h433z" />
<glyph unicode="&#xe9;" horiz-adv-x="1698" d="M741 -29q-361 0 -534 211.5t-111 579.5q40 238 163.5 416.5t311.5 278t419 99.5q218 0 370.5 -91t218 -265.5t23.5 -427.5l-19 -122h-1023l-3 -18q-23 -146 43 -227t209 -81q95 0 173 40t120 117l446 -13q-82 -226 -292.5 -361.5t-514.5 -135.5zM612 934h562 q19 118 -45 193.5t-184 75.5q-119 0 -213 -77.5t-120 -191.5zM840 1731l276 451h433l-376 -451h-333z" />
<glyph unicode="&#xea;" horiz-adv-x="1698" d="M741 -29q-361 0 -534 211.5t-111 579.5q40 238 163.5 416.5t311.5 278t419 99.5q218 0 370.5 -91t218 -265.5t23.5 -427.5l-19 -122h-1023l-3 -18q-23 -146 43 -227t209 -81q95 0 173 40t120 117l446 -13q-82 -226 -292.5 -361.5t-514.5 -135.5zM612 934h562 q19 118 -45 193.5t-184 75.5q-119 0 -213 -77.5t-120 -191.5zM806.837 1720l236.818 232l160.182 -232h409l2.30371 13l-356.66 448h-351l-508.34 -448l-2.30371 -13h410z" />
<glyph unicode="&#xeb;" horiz-adv-x="1698" d="M741 -29q-361 0 -534 211.5t-111 579.5q40 238 163.5 416.5t311.5 278t419 99.5q218 0 370.5 -91t218 -265.5t23.5 -427.5l-19 -122h-1023l-3 -18q-23 -146 43 -227t209 -81q95 0 173 40t120 117l446 -13q-82 -226 -292.5 -361.5t-514.5 -135.5zM612 934h562 q19 118 -45 193.5t-184 75.5q-119 0 -213 -77.5t-120 -191.5zM1350 1731q-104 0 -167.5 73t-47.5 174q14 80 81.5 134t150.5 54q104 0 165 -72.5t44 -173.5q-11 -79 -77 -134t-149 -55zM726 1731q-104 0 -167.5 73.5t-47.5 173.5q14 80 81.5 134t150.5 54q104 0 165 -72.5 t44 -173.5q-11 -79 -77 -134t-149 -55z" />
<glyph unicode="&#xec;" d="M27 0l256 1536h489l-256 -1536h-489zM730 1732h-333l-229 451h433z" />
<glyph unicode="&#xed;" d="M27 0l256 1536h489l-256 -1536h-489zM392 1732l276 451h433l-376 -451h-333z" />
<glyph unicode="&#xee;" d="M27 0l256 1536h489l-256 -1536h-489zM357.837 1721l236.818 232l160.182 -232h409l2.30371 13l-356.66 448h-351l-508.34 -448l-2.30371 -13h410z" />
<glyph unicode="&#xef;" d="M27 0l256 1536h489l-256 -1536h-489zM901 1732q-104 0 -167.5 73t-47.5 174q14 80 81.5 134t150.5 54q104 0 165 -72.5t44 -173.5q-11 -79 -77 -134t-149 -55zM277 1732q-104 0 -167.5 73.5t-47.5 173.5q14 80 81.5 134t150.5 54q104 0 165 -72.5t44 -173.5 q-11 -79 -77 -134t-149 -55z" />
<glyph unicode="&#xf0;" horiz-adv-x="1603" d="M1441 1855l-190 -90q148 -194 223 -449t23 -564q-40 -248 -156.5 -423.5t-289.5 -268t-383 -92.5q-212 0 -353 95t-200 261t-25 380q35 205 130.5 353.5t220.5 239.5t245 121q90 19 187 11.5t152 -73.5h20q-67 140 -158 235l-392 -186l-91 237l266 127q-37 25 -78.5 52 t-88.5 56l263 299q79 -42 156 -96t149 -120l278 133zM752 340q119 0 202.5 87t117.5 283q32 205 -28.5 280t-173.5 75t-197.5 -78t-115.5 -280q-33 -199 23.5 -283t171.5 -84z" />
<glyph unicode="&#xf1;" horiz-adv-x="1786" d="M665 876l-146 -876h-489l256 1536h465l-46 -282h17q72 141 209 221.5t308 80.5q242 0 361.5 -158.5t75.5 -418.5l-164 -979h-489l147 883q21 128 -31 200t-170 72q-115 0 -198.5 -74t-105.5 -205zM778 1726l-254 2q34 203 147 307.5t252 104.5q74 0 123 -23.5t84.5 -55 t67.5 -55t72 -23.5q57 0 91.5 42.5t46.5 112.5l249 -3q-36 -202 -149.5 -306.5t-251.5 -106.5q-76 0 -124 23.5t-81.5 54.5t-64.5 54.5t-74 23.5q-49 0 -85.5 -39.5t-48.5 -112.5z" />
<glyph unicode="&#xf2;" horiz-adv-x="1744" d="M743 -29q-242 0 -400 100t-221.5 279t-24.5 416q39 236 161 414t312 277t431 99q242 0 399.5 -100t221.5 -279t25 -417q-39 -235 -161.5 -413t-312 -277t-430.5 -99zM798 340q135 0 228 118.5t124 311.5q31 189 -20.5 306.5t-183.5 117.5q-135 0 -228 -119.5t-124 -311.5 q-31 -190 20 -306.5t184 -116.5zM1202 1731h-333l-229 451h433z" />
<glyph unicode="&#xf3;" horiz-adv-x="1744" d="M743 -29q-242 0 -400 100t-221.5 279t-24.5 416q39 236 161 414t312 277t431 99q242 0 399.5 -100t221.5 -279t25 -417q-39 -235 -161.5 -413t-312 -277t-430.5 -99zM798 340q135 0 228 118.5t124 311.5q31 189 -20.5 306.5t-183.5 117.5q-135 0 -228 -119.5t-124 -311.5 q-31 -190 20 -306.5t184 -116.5zM864 1731l276 451h433l-376 -451h-333z" />
<glyph unicode="&#xf4;" horiz-adv-x="1744" d="M743 -29q-242 0 -400 100t-221.5 279t-24.5 416q39 236 161 414t312 277t431 99q242 0 399.5 -100t221.5 -279t25 -417q-39 -235 -161.5 -413t-312 -277t-430.5 -99zM798 340q135 0 228 118.5t124 311.5q31 189 -20.5 306.5t-183.5 117.5q-135 0 -228 -119.5t-124 -311.5 q-31 -190 20 -306.5t184 -116.5zM829.837 1720l236.818 232l160.182 -232h409l2.30371 13l-356.66 448h-351l-508.34 -448l-2.30371 -13h410z" />
<glyph unicode="&#xf5;" horiz-adv-x="1651" d="M760 1726l-254 2q34 203 147 307.5t252 104.5q74 0 123 -23.5t84.5 -55t67.5 -55t72 -23.5q57 0 91.5 42.5t46.5 112.5l249 -3q-36 -202 -149.5 -306.5t-251.5 -106.5q-76 0 -124 23.5t-81.5 54.5t-64.5 54.5t-74 23.5q-49 0 -85.5 -39.5t-48.5 -112.5zM749 -29 q-242 0 -400 100t-221.5 279t-24.5 416q39 236 161 414t312 277t431 99q242 0 399.5 -100t221.5 -279t25 -417q-39 -235 -161.5 -413t-312 -277t-430.5 -99zM804 340q135 0 228 118.5t124 311.5q31 189 -20.5 306.5t-183.5 117.5q-135 0 -228 -119.5t-124 -311.5 q-31 -190 20 -306.5t184 -116.5z" />
<glyph unicode="&#xf6;" horiz-adv-x="1744" d="M743 -29q-242 0 -400 100t-221.5 279t-24.5 416q39 236 161 414t312 277t431 99q242 0 399.5 -100t221.5 -279t25 -417q-39 -235 -161.5 -413t-312 -277t-430.5 -99zM798 340q135 0 228 118.5t124 311.5q31 189 -20.5 306.5t-183.5 117.5q-135 0 -228 -119.5t-124 -311.5 q-31 -190 20 -306.5t184 -116.5zM1373 1731q-104 0 -167.5 73t-47.5 174q14 80 81.5 134t150.5 54q104 0 165 -72.5t44 -173.5q-11 -79 -77 -134t-149 -55zM749 1731q-104 0 -167.5 73.5t-47.5 173.5q14 80 81.5 134t150.5 54q104 0 165 -72.5t44 -173.5q-11 -79 -77 -134 t-149 -55z" />
<glyph unicode="&#xf7;" horiz-adv-x="1923" d="M1722 1014l-62 -377h-1440l62 377h1440zM859 -5q-119 0 -189.5 86.5t-50.5 205.5q17 98 97 164.5t178 66.5q119 0 188 -84.5t48 -203.5q-16 -98 -94.5 -166.5t-176.5 -68.5zM1050 1134q-119 0 -191 86t-53 206q17 97 97.5 163.5t178.5 66.5q119 0 186.5 -84.5 t49.5 -203.5q-14 -97 -92 -165.5t-176 -68.5z" />
<glyph unicode="&#xf8;" horiz-adv-x="1750" d="M275 -103l-187 142l126 145q-178 217 -117 582q39 236 161 414t312 277t431 99q197 0 343 -70l122 141l186 -142l-123 -142q178 -217 118 -583q-39 -235 -161.5 -413t-312 -277t-430.5 -99q-198 0 -344 70zM582 609l479 552q-48 33 -115 33q-135 0 -228 -119.5 t-124 -311.5q-14 -84 -12 -154zM798 340q135 0 228 118.5t124 311.5q13 80 11 149l-475 -549q47 -30 112 -30z" />
<glyph unicode="&#xf9;" horiz-adv-x="1790" d="M1128 663l146 873h488l-256 -1536h-466l47 286h-16q-71 -141 -209 -223.5t-311 -82.5q-237 0 -356 158.5t-76 418.5l164 979h489l-147 -883q-19 -125 34 -197t165 -72q109 0 196 72.5t108 206.5zM1226 1731h-333l-229 451h433z" />
<glyph unicode="&#xfa;" horiz-adv-x="1790" d="M1128 663l146 873h488l-256 -1536h-466l47 286h-16q-71 -141 -209 -223.5t-311 -82.5q-237 0 -356 158.5t-76 418.5l164 979h489l-147 -883q-19 -125 34 -197t165 -72q109 0 196 72.5t108 206.5zM888 1731l276 451h433l-376 -451h-333z" />
<glyph unicode="&#xfb;" horiz-adv-x="1790" d="M1128 663l146 873h488l-256 -1536h-466l47 286h-16q-71 -141 -209 -223.5t-311 -82.5q-237 0 -356 158.5t-76 418.5l164 979h489l-147 -883q-19 -125 34 -197t165 -72q109 0 196 72.5t108 206.5zM853.837 1720l236.818 232l160.182 -232h409l2.30371 13l-356.66 448h-351 l-508.34 -448l-2.30371 -13h410z" />
<glyph unicode="&#xfc;" horiz-adv-x="1790" d="M1128 663l146 873h488l-256 -1536h-466l47 286h-16q-71 -141 -209 -223.5t-311 -82.5q-237 0 -356 158.5t-76 418.5l164 979h489l-147 -883q-19 -125 34 -197t165 -72q109 0 196 72.5t108 206.5zM1397 1731q-104 0 -167.5 73t-47.5 174q14 80 81.5 134t150.5 54 q104 0 165 -72.5t44 -173.5q-11 -79 -77 -134t-149 -55zM773 1731q-104 0 -167.5 73.5t-47.5 173.5q14 80 81.5 134t150.5 54q104 0 165 -72.5t44 -173.5q-11 -79 -77 -134t-149 -55z" />
<glyph unicode="&#xfd;" horiz-adv-x="1677" d="M210 -599q-99 0 -167 17.5t-107 35.5l169 372q101 -36 177 -25.5t128 92.5l30 53l-280 1590h510l102 -1096h16l468 1096h517l-860 -1688q-96 -187 -270.5 -317t-432.5 -130zM825 1731l276 451h433l-376 -451h-333z" />
<glyph unicode="&#xfe;" horiz-adv-x="1729" d="M367 2048h489l-109 -666h15q53 86 155 130t230 44q158 0 283.5 -84.5t183.5 -259t12 -445.5q-42 -263 -155.5 -438.5t-268 -263t-321.5 -87.5q-121 0 -208.5 39.5t-115.5 128.5h-17l-120 -722h-489zM1166 768q33 195 -24.5 300.5t-208.5 105.5q-107 0 -176.5 -55.5 t-109 -147.5t-58.5 -203q-18 -108 -10 -201.5t59 -150.5t160 -57q151 0 244 106.5t124 302.5z" />
<glyph unicode="&#xff;" horiz-adv-x="1677" d="M210 -599q-99 0 -167 17.5t-107 35.5l169 372q101 -36 177 -25.5t128 92.5l30 53l-280 1590h510l102 -1096h16l468 1096h517l-860 -1688q-96 -187 -270.5 -317t-432.5 -130zM1335 1731q-104 0 -167.5 73t-47.5 174q14 80 81.5 134t150.5 54q104 0 165 -72.5t44 -173.5 q-11 -79 -77 -134t-149 -55zM711 1731q-104 0 -167.5 73.5t-47.5 173.5q14 80 81.5 134t150.5 54q104 0 165 -72.5t44 -173.5q-11 -79 -77 -134t-149 -55z" />
<glyph unicode="&#x131;" d="M27 0l256 1536h489l-256 -1536h-489z" />
<glyph unicode="&#x152;" horiz-adv-x="2930" d="M946 0q-265 0 -459 114t-280.5 341t-30.5 566q56 342 218 570t394.5 342.5t497.5 114.5h1700l-68 -402h-933l-68 -420h860l-68 -403h-860l-68 -421h933l-68 -402h-1700zM1285 402l206 1244h-273q-192 0 -339.5 -142t-203.5 -483q-37 -229 -2.5 -364.5t124.5 -195 t218 -59.5h270z" />
<glyph unicode="&#x153;" horiz-adv-x="2734" d="M743 -29q-242 0 -400 100t-221.5 279t-24.5 416q39 236 161 414t312 277t431 99q242 0 399.5 -100t221.5 -279t25 -417q-39 -235 -161.5 -413t-312 -277t-430.5 -99zM798 340q135 0 228 118.5t124 311.5q31 189 -20.5 306.5t-183.5 117.5q-135 0 -228 -119.5t-124 -311.5 q-31 -190 20 -306.5t184 -116.5zM1820 -29q-361 0 -534 211.5t-111 579.5q40 238 163.5 416.5t311.5 278t419 99.5q218 0 370.5 -91t218 -265.5t23.5 -427.5l-19 -122h-1023l-3 -18q-23 -146 43 -227t209 -81q95 0 173 40t120 117l446 -13q-82 -226 -292.5 -361.5 t-514.5 -135.5zM1691 934h562q19 118 -45 193.5t-184 75.5q-119 0 -213 -77.5t-120 -191.5z" />
<glyph unicode="&#x178;" horiz-adv-x="2096" d="M265 2048h553l290 -857h21l573 857h553l-975 -1364l-114 -684h-492l115 684zM1637 2243q-104 0 -167.5 73t-47.5 174q14 80 81.5 134t150.5 54q104 0 165 -72.5t44 -173.5q-11 -79 -77 -134t-149 -55zM1013 2243q-104 0 -167.5 73.5t-47.5 173.5q14 80 81.5 134t150.5 54 q104 0 165 -72.5t44 -173.5q-11 -79 -77 -134t-149 -55z" />
<glyph unicode="&#x189;" horiz-adv-x="2056" d="M-81 952l48 273h1037l-48 -273h-1037zM795 0h-768l340 2048h745q313 0 521 -126.5t294.5 -361.5t32.5 -561q-52 -314 -209 -538t-400.5 -342.5t-555.5 -118.5zM592 422h234q258 0 425.5 144t222.5 484q54 323 -59 449.5t-377 126.5h-246z" />
<glyph unicode="&#x237;" d="M283 1536h489l-266 -1594q-45 -285 -237 -403t-484 -109q-19 0 -40 0.5t-50 3.5l62 370q17 -2 31.5 -2.5t28.5 -0.5q101 0 145.5 37.5t58.5 113.5z" />
<glyph unicode="&#x2c6;" horiz-adv-x="1677" d="M797.837 1720l236.818 232l160.182 -232h409l2.30371 13l-356.66 448h-351l-508.34 -448l-2.30371 -13h410z" />
<glyph unicode="&#x2c7;" horiz-adv-x="1677" d="M873 2181l160 -232l237 232h409l-2 -13l-505 -448h-351l-360 448l2 13h410z" />
<glyph unicode="&#x2d9;" horiz-adv-x="870" d="M598 1715q-104 0 -169 69t-51 165q15 97 98.5 165t186.5 68q104 0 167.5 -68t50.5 -165q-13 -96 -96 -165t-187 -69z" />
<glyph unicode="&#x2da;" horiz-adv-x="1149" d="M743 1698q-139 0 -226 95t-72 229q10 90 63.5 164.5t135 118.5t173.5 44q139 0 225.5 -96t71.5 -231q-10 -89 -63.5 -163t-134 -117.5t-173.5 -43.5zM766 1886q60 0 105.5 40.5t52.5 95.5q7 56 -30 97.5t-97 41.5q-62 0 -108 -41.5t-53 -97.5q-7 -55 30.5 -95.5 t99.5 -40.5z" />
<glyph unicode="&#x2dc;" horiz-adv-x="1408" d="M584 1726l-254 2q34 203 147 307.5t252 104.5q74 0 123 -23.5t84.5 -55t67.5 -55t72 -23.5q57 0 91.5 42.5t46.5 112.5l249 -3q-36 -202 -149.5 -306.5t-251.5 -106.5q-76 0 -124 23.5t-81.5 54.5t-64.5 54.5t-74 23.5q-49 0 -85.5 -39.5t-48.5 -112.5z" />
<glyph unicode="&#x2000;" horiz-adv-x="1383" />
<glyph unicode="&#x2001;" horiz-adv-x="2766" />
<glyph unicode="&#x2002;" horiz-adv-x="1383" />
<glyph unicode="&#x2003;" horiz-adv-x="2766" />
<glyph unicode="&#x2004;" horiz-adv-x="922" />
<glyph unicode="&#x2005;" horiz-adv-x="691" />
<glyph unicode="&#x2006;" horiz-adv-x="461" />
<glyph unicode="&#x2007;" horiz-adv-x="461" />
<glyph unicode="&#x2008;" horiz-adv-x="345" />
<glyph unicode="&#x2009;" horiz-adv-x="553" />
<glyph unicode="&#x200a;" horiz-adv-x="153" />
<glyph unicode="&#x2010;" horiz-adv-x="1328" d="M1178 1017l-61 -377h-947l61 377h947z" />
<glyph unicode="&#x2011;" horiz-adv-x="1328" d="M1178 1017l-61 -377h-947l61 377h947z" />
<glyph unicode="&#x2012;" horiz-adv-x="1328" d="M1178 1017l-61 -377h-947l61 377h947z" />
<glyph unicode="&#x2013;" horiz-adv-x="1408" d="M1449 1017l-62 -377h-1408l62 377h1408z" />
<glyph unicode="&#x2014;" horiz-adv-x="2816" d="M2857 1017l-62 -377h-2816l62 377h2816z" />
<glyph unicode="&#x2018;" horiz-adv-x="723" d="M266 1408l38 228q17 95 71 193t128 182.5t150 138.5l188 -114q-68 -88 -116.5 -183t-68.5 -216l-38 -229h-352z" />
<glyph unicode="&#x2019;" horiz-adv-x="723" d="M774 2048l-38 -228q-16 -95 -69.5 -191.5t-127 -180.5t-149.5 -142l-192 114q59 76 111 171t74 228l39 229h352z" />
<glyph unicode="&#x201a;" horiz-adv-x="723" d="M478 256l-38 -228q-16 -95 -69.5 -191.5t-127 -180.5t-149.5 -142l-192 114q59 76 111 171t74 228l39 229h352z" />
<glyph unicode="&#x201c;" horiz-adv-x="1226" d="M266 1408l38 228q17 95 71 193t128 182.5t150 138.5l188 -114q-68 -88 -116.5 -183t-68.5 -216l-38 -229h-352zM768 1408l38 228q17 95 71 193t128 182.5t150 138.5l188 -114q-68 -88 -116.5 -183t-68.5 -216l-38 -229h-352z" />
<glyph unicode="&#x201d;" horiz-adv-x="1222" d="M774 2048l-38 -228q-16 -95 -69.5 -191.5t-127 -180.5t-149.5 -142l-192 114q59 76 111 171t74 228l39 229h352zM1273 2048l-38 -228q-16 -95 -69.5 -191.5t-127 -180.5t-149.5 -142l-192 114q59 76 111 171t74 228l39 229h352z" />
<glyph unicode="&#x201e;" horiz-adv-x="1222" d="M472 256l-38 -228q-16 -95 -69.5 -191.5t-127 -180.5t-149.5 -142l-192 114q59 76 111 171t74 228l39 229h352zM971 256l-38 -228q-16 -95 -69.5 -191.5t-127 -180.5t-149.5 -142l-192 114q59 76 111 171t74 228l39 229h352z" />
<glyph unicode="&#x2022;" horiz-adv-x="1280" d="M576 376q-121 0 -211 59.5t-133.5 160.5t-23.5 223t95 221t184 157.5t230 58.5q123 0 213.5 -60t134 -160.5t23.5 -222.5q-20 -121 -96 -220.5t-185.5 -158t-230.5 -58.5z" />
<glyph unicode="&#x2026;" horiz-adv-x="2229" d="M330 -29q-109 0 -178 75.5t-60 184.5q10 107 93.5 181.5t192.5 74.5q104 0 174 -75t60 -181q-10 -109 -95.5 -184.5t-186.5 -75.5zM1015 -29q-109 0 -178 75.5t-60 184.5q10 107 93.5 181.5t192.5 74.5q104 0 174 -75t60 -181q-10 -109 -95.5 -184.5t-186.5 -75.5z M1699 -29q-109 0 -178 75.5t-60 184.5q10 107 93.5 181.5t192.5 74.5q104 0 174 -75t60 -181q-10 -109 -95.5 -184.5t-186.5 -75.5z" />
<glyph unicode="&#x202f;" horiz-adv-x="553" />
<glyph unicode="&#x2039;" horiz-adv-x="1136" d="M913 220h-445l-304 600l2 8h-2l4 20l504 600h445l-482 -612z" />
<glyph unicode="&#x203a;" horiz-adv-x="1136" d="M35 220l482 612l-278 616h445l304 -600l-2 -8h2l-4 -20l-504 -600h-445z" />
<glyph unicode="&#x2044;" horiz-adv-x="792" d="M-454 0l1513 2048h274l-1513 -2048h-274z" />
<glyph unicode="&#x205f;" horiz-adv-x="691" />
<glyph unicode="&#x20ac;" horiz-adv-x="1952" d="M1630 1350l-136 -226h-587q-12 -49 -21 -103q-8 -51 -13 -97h489l-150 -232h-339q21 -151 104.5 -217t218.5 -66q132 0 231 47.5t147 77.5l119 -388q-250 -174 -569 -174q-329 0 -532 186.5t-225 533.5h-293l120 232h179q5 48 13 97q9 52 20 103h-261l120 226h210 q137 348 402.5 537t594.5 189q161 0 291 -45.5t227 -131.5l-247 -387q-43 27 -125.5 77t-216.5 50q-135 0 -241 -68.5t-178 -220.5h648z" />
<glyph unicode="&#x2122;" horiz-adv-x="1840" d="M1334 1312l-83 381l-63 -381h-205l122 736h242l91 -468l244 468h242l-122 -736h-205l63 382l-210 -382h-116zM426 1312l93 570h-223l28 166h653l-28 -166h-225l-93 -570h-205z" />
<glyph unicode="&#x25fc;" horiz-adv-x="1535" d="M0 1535h1535v-1535h-1535v1535z" />
<glyph horiz-adv-x="1067" d="M-30 0l37 216l502 338q71 48 129 91.5t68 100.5q9 58 -33.5 87.5t-118.5 29.5q-69 0 -123.5 -30.5t-69.5 -104.5h-291q27 170 169 273t347 103q208 0 311.5 -106t82.5 -251q-15 -106 -95.5 -204t-284.5 -200l-157 -84l-3 -11h458l-37 -248h-891z" />
<glyph horiz-adv-x="1179" d="M-30 167l37 241l619 680h382l-112 -676h156l-34 -245h-162l-28 -167h-290l28 167h-596zM612 412l60 355h-6l-353 -345v-10h299z" />
<glyph horiz-adv-x="820" d="M863 2112l-180 -1088h-298l127 723h-12q-47 -55 -260 -51l33 238q131 -4 210 58.5t95 119.5h285z" />
<glyph horiz-adv-x="1132" d="M617 1008q-140 0 -246.5 40.5t-161 115t-40.5 176.5h304q-2 -40 43.5 -60t111.5 -20q81 0 142.5 30t71.5 85q16 87 -174 87h-152l33 228h141q74 0 130 32.5t68 87.5q14 77 -120 77q-66 0 -130.5 -21t-73.5 -62h-290q17 96 91 169t183 114t231 41q138 0 232 -48.5 t137 -125t29 -159.5q-15 -94 -87.5 -144t-172.5 -62v-8q129 -11 187.5 -86t42.5 -174q-23 -142 -170 -227.5t-360 -85.5z" />
<glyph horiz-adv-x="1453" d="M1304 2203q-104 0 -167.5 73t-47.5 174q14 80 81.5 134t150.5 54q104 0 165 -72.5t44 -173.5q-11 -79 -77 -134t-149 -55zM680 2203q-104 0 -167.5 73.5t-47.5 173.5q14 80 81.5 134t150.5 54q104 0 165 -72.5t44 -173.5q-11 -79 -77 -134t-149 -55z" />
<glyph horiz-adv-x="1386" d="M659 2248l-254 2q34 203 147 307.5t252 104.5q74 0 123 -23.5t84.5 -55t67.5 -55t72 -23.5q57 0 91.5 42.5t46.5 112.5l249 -3q-36 -202 -149.5 -306.5t-251.5 -106.5q-76 0 -124 23.5t-81.5 54.5t-64.5 54.5t-74 23.5q-49 0 -85.5 -39.5t-48.5 -112.5z" />
<glyph horiz-adv-x="1149" d="M804 2149q-133 0 -212 91t-58 218q14 86 68 156t133.5 111t168.5 41q136 0 217.5 -90t56.5 -218q-24 -129 -131 -219t-243 -90zM834 2330q55 0 103 38t54 90q7 55 -26 91.5t-91 36.5q-54 0 -98.5 -37.5t-54.5 -90.5q-10 -52 23 -90t90 -38z" />
</font>
</defs>
</svg>
