<?xml version="1.0" standalone="no"?>
<!DOCTYPE svg PUBLIC "-//W3C//DTD SVG 1.1//EN" "http://www.w3.org/Graphics/SVG/1.1/DTD/svg11.dtd" >
<svg xmlns="http://www.w3.org/2000/svg" xmlns:xlink="http://www.w3.org/1999/xlink" version="1.1">
<metadata></metadata>
<defs>
<font id="interbold_italic" horiz-adv-x="766" >
<font-face units-per-em="2816" ascent="2252" descent="-564" />
<missing-glyph horiz-adv-x="653" />
<glyph horiz-adv-x="0" />
<glyph horiz-adv-x="938" />
<glyph horiz-adv-x="0" />
<glyph unicode="&#x9;" horiz-adv-x="816" />
<glyph unicode=" "  horiz-adv-x="653" />
<glyph unicode="&#x09;" horiz-adv-x="653" />
<glyph unicode="&#xa0;" horiz-adv-x="653" />
<glyph unicode="!" horiz-adv-x="914" d="M889 2048l-276 -1434h-364l197 1434h443zM350 -26q-101 0 -165.5 70t-58.5 170q7 99 83.5 167.5t176.5 68.5q96 0 162 -69t58 -167q-7 -100 -84.5 -170t-171.5 -70z" />
<glyph unicode="&#x22;" horiz-adv-x="1105" d="M656 2048l-128 -778h-304l128 778h304zM1173 2048l-128 -778h-304l128 778h304z" />
<glyph unicode="#" horiz-adv-x="1829" d="M964 0l83 508h-400l-83 -508h-320l83 508h-281l54 320h280l64 392h-280l54 320h279l83 508h320l-83 -508h400l83 508h320l-83 -508h281l-54 -320h-280l-64 -392h280l-54 -320h-279l-83 -508h-320zM700 828h400l64 392h-400z" />
<glyph unicode="$" horiz-adv-x="1844" d="M641 -256l41 232q-314 27 -474 196t-117 471h419q-14 -126 51.5 -201t184.5 -98l93 529l-95 25q-247 63 -374.5 197.5t-91.5 360.5q29 171 136 303t271 213t363 99l41 233h236l-41 -235q282 -32 425.5 -198t106.5 -418h-415q8 198 -182 247l-87 -499l55 -14 q171 -40 297 -116t186 -195.5t31 -290.5q-44 -260 -249.5 -422.5t-534.5 -187.5l-40 -231h-236zM982 345q118 23 193 87t89 154q15 84 -38 137t-162 89zM907 1261l77 443q-110 -21 -176 -79.5t-79 -139.5q-17 -86 36 -139t142 -85z" />
<glyph unicode="%" horiz-adv-x="2420" d="M1223 384l20 108q20 123 89.5 226.5t181 166t255.5 62.5q148 0 238 -62t124.5 -165.5t13.5 -227.5l-20 -108q-20 -123 -89.5 -226.5t-180.5 -166t-257 -62.5t-235.5 62.5t-124 166t-15.5 226.5zM368 1556l16 108q21 124 91 227.5t181 165.5t254 62q147 0 237.5 -62 t125 -165.5t13.5 -227.5l-16 -108q-21 -124 -90.5 -227t-180 -164.5t-256.5 -61.5t-236 62t-124.5 165t-14.5 226zM327 0l1525 2048h264l-1526 -2048h-263zM1534 492l-20 -108q-10 -71 13 -134t114 -63q92 0 136.5 62t54.5 135l20 108q12 74 -9.5 136.5t-116.5 62.5 q-89 0 -134.5 -62.5t-57.5 -136.5zM677 1664l-16 -108q-13 -73 11.5 -135t113.5 -62q92 0 135 62t56 135l16 108q12 74 -9.5 136.5t-116.5 62.5q-89 0 -133.5 -64t-56.5 -135z" />
<glyph unicode="&#x26;" horiz-adv-x="1898" d="M666 -30q-212 0 -353 76.5t-201.5 206.5t-34.5 291q28 179 151.5 299.5t309.5 235.5q-63 102 -101 218t-15 252q25 149 113.5 268t225.5 188.5t305 69.5q165 0 274 -66t155 -176t23 -241q-23 -145 -114 -262t-236 -211l-134 -87l273 -387q53 75 91 164.5t54 189.5h353 q-33 -210 -109.5 -372t-181.5 -276l248 -351h-444l-101 138q-125 -88 -270.5 -128t-280.5 -40zM1031 393l-317 434l-14 -9q-187 -124 -208 -250q-16 -109 51.5 -182.5t201.5 -73.5q140 0 286 81zM870 1276l118 70q161 93 185 222q11 60 -29.5 112t-132.5 52 q-88 0 -153 -55.5t-76 -134.5q-9 -64 17 -129t71 -137z" />
<glyph unicode="'" horiz-adv-x="588" d="M656 2048l-128 -778h-304l128 778h304z" />
<glyph unicode="(" horiz-adv-x="1152" d="M273 821q120 736 613 1265h408q-126 -132 -243.5 -338.5t-206 -448t-128.5 -478.5t-31.5 -478.5t58 -448.5t131.5 -339h-407q-316 528 -194 1266z" />
<glyph unicode=")" horiz-adv-x="1152" d="M897 821q-120 -736 -613 -1265h-408q126 132 243.5 338.5t206 448t128.5 478.5t31.5 478.5t-58 448.5t-131.5 339h407q316 -528 194 -1266z" />
<glyph unicode="*" horiz-adv-x="1590" d="M681 896l92 387l-360 -217l-95 236l375 170l-322 170l175 236l288 -217l39 387h269l-91 -387l359 217l96 -236l-375 -170l322 -170l-175 -236l-288 217l-40 -387h-269z" />
<glyph unicode="+" horiz-adv-x="1894" d="M661 121l86 521h-521l60 358h520l86 521h358l-86 -521h522l-60 -358h-521l-86 -521h-358z" />
<glyph unicode="," horiz-adv-x="853" d="M553 280l-31 -110q-34 -132 -92 -263t-115 -238.5t-90 -168.5h-276q22 57 65.5 162.5t89 237.5t72.5 268l25 112h352z" />
<glyph unicode="-" horiz-adv-x="1320" d="M1167 1010l-55 -338h-935l55 338h935z" />
<glyph unicode="." horiz-adv-x="838" d="M310 -26q-101 0 -165.5 70t-58.5 170q7 99 83.5 167.5t176.5 68.5q96 0 162 -69t58 -167q-7 -100 -84.5 -170t-171.5 -70z" />
<glyph unicode="/" horiz-adv-x="1098" d="M1290 2144l-1064 -2452h-367l1064 2452h367z" />
<glyph unicode="0" horiz-adv-x="1938" d="M834 -45q-387 0 -561.5 281t-89.5 786q57 336 195.5 571.5t344.5 359t462 123.5q385 0 560.5 -275.5t92.5 -778.5q-56 -336 -195 -575t-345 -365.5t-464 -126.5zM894 314q177 0 309.5 177t192.5 531q59 348 -17 523.5t-252 175.5q-175 0 -309.5 -175.5t-192.5 -523.5 q-59 -354 17.5 -531t251.5 -177z" />
<glyph unicode="1" horiz-adv-x="1335" d="M1226 2048l-340 -2048h-432l251 1518h-19q-42 -51 -157 -101.5t-284 -50.5l56 344q132 0 240 58.5t177 138t84 141.5h424z" />
<glyph unicode="2" horiz-adv-x="1774" d="M38 0l53 312l840 675q162 134 252 233.5t110 220.5q23 136 -52.5 214t-210.5 78q-140 0 -241 -84.5t-126 -231.5h-411q34 202 151 349.5t294.5 228.5t391.5 81q220 0 370.5 -77.5t218.5 -214t38 -314.5q-20 -116 -84.5 -229t-203.5 -250.5t-382 -329.5l-347 -293l-3 -14 h861l-59 -354h-1460z" />
<glyph unicode="3" horiz-adv-x="1857" d="M813 -28q-230 0 -396 77t-245.5 214t-51.5 316h430q-16 -112 65 -181t219 -69q155 0 270.5 85.5t134.5 212.5q20 122 -67.5 190t-257.5 68h-199l53 318h180q149 0 259.5 81.5t131.5 211.5q18 107 -41.5 172t-190.5 65q-90 0 -173.5 -31.5t-141.5 -89.5t-71 -136h-413 q31 177 148.5 312t293 211.5t379.5 76.5q217 0 366 -83.5t216.5 -220t41.5 -296.5q-29 -176 -153.5 -278.5t-309.5 -132.5v-15q206 -28 312 -165t74 -333q-28 -170 -147.5 -301t-304.5 -205t-411 -74z" />
<glyph unicode="4" horiz-adv-x="1909" d="M67 360l56 341l1079 1347h542l-223 -1341h254l-57 -347h-254l-60 -360h-414l60 360h-983zM1116 707l144 869h-17l-680 -853l-2 -16h555z" />
<glyph unicode="5" horiz-adv-x="1815" d="M782 -28q-211 0 -364.5 78t-227.5 215.5t-49 313.5h420q-12 -118 68 -192.5t209 -74.5q153 0 267 100t141 260q26 161 -56.5 263t-237.5 102q-91 0 -180.5 -37.5t-148.5 -100.5l-374 69l277 1080h1252l-58 -354h-894l-139 -513h12q68 76 184.5 126t251.5 50 q185 0 315.5 -87t188.5 -239t25 -348q-33 -206 -155.5 -367t-310 -252.5t-416.5 -91.5z" />
<glyph unicode="6" horiz-adv-x="1859" d="M841 -28q-162 0 -303 55t-240 175.5t-135.5 317t11.5 481.5q57 342 196.5 584t343 369.5t452.5 127.5q205 0 352.5 -79t224 -215.5t68.5 -309.5h-418q-2 115 -69.5 174t-181.5 59q-204 0 -345 -177.5t-195 -487.5l16 23q92 135 238 206.5t310 71.5q187 0 318.5 -88.5 t190.5 -243t25 -352.5q-34 -202 -153 -358.5t-301 -245t-405 -87.5zM856 312q105 0 197 51t154.5 138.5t78.5 196.5q23 143 -52 239.5t-219 96.5q-104 0 -196.5 -52t-156 -139t-80.5 -193q-22 -144 53.5 -241t220.5 -97z" />
<glyph unicode="7" horiz-adv-x="1675" d="M119 0l1127 1680l4 14h-988l57 354h1437l-59 -359l-1131 -1689h-447z" />
<glyph unicode="8" horiz-adv-x="1858" d="M802 -28q-232 0 -400.5 77t-250 209.5t-53.5 299.5q21 126 97.5 231.5t188 176.5t238.5 91v13q-156 33 -236 162.5t-51 298.5q28 158 140.5 281t284.5 193.5t378 70.5q208 0 359.5 -73t225.5 -199t47 -286q-28 -171 -153.5 -293.5t-293.5 -154.5v-13q121 -21 210.5 -93.5 t131.5 -181t20 -237.5q-28 -164 -151 -294t-313 -204.5t-419 -74.5zM844 290q158 0 267.5 84.5t130.5 216.5q22 133 -60.5 216t-228.5 83q-151 0 -264.5 -88t-135.5 -224q-21 -128 59.5 -208t231.5 -80zM994 1205q134 0 230.5 79.5t117.5 201.5q21 121 -47 192.5t-197 71.5 q-135 0 -233 -77t-118 -199q-20 -121 50 -195t197 -74z" />
<glyph unicode="9" horiz-adv-x="1859" d="M1106 2082q162 0 303.5 -54.5t240.5 -175t135.5 -317t-11.5 -481.5q-57 -342 -197 -584t-343.5 -370t-452.5 -128q-205 0 -352 79t-223.5 215.5t-69.5 309.5h418q2 -115 69.5 -174t182.5 -59q204 0 345 178t195 488l-16 -23q-91 -135 -237.5 -207t-310.5 -72 q-186 0 -318 89t-191 243.5t-26 351.5q34 203 153.5 359.5t301.5 244.5t404 87zM1091 1742q-104 0 -196.5 -51t-155 -138t-78.5 -196q-23 -143 52 -239.5t219 -96.5q105 0 197.5 52t156 139.5t80.5 192.5q22 143 -53.5 240t-221.5 97z" />
<glyph unicode=":" horiz-adv-x="838" d="M310 -26q-101 0 -165.5 70t-58.5 170q7 99 83.5 167.5t176.5 68.5q96 0 162 -69t58 -167q-7 -100 -84.5 -170t-171.5 -70zM488 1049q-101 0 -165.5 70t-58.5 170q7 99 83.5 167.5t176.5 68.5q96 0 162 -69t58 -167q-7 -100 -84.5 -170t-171.5 -70z" />
<glyph unicode=";" horiz-adv-x="853" d="M553 280l-31 -110q-34 -132 -92 -263t-115 -238.5t-90 -168.5h-276q22 57 65.5 162.5t89 237.5t72.5 268l25 112h352zM494 1049q-101 0 -165.5 70t-58.5 170q7 99 83.5 167.5t176.5 68.5q96 0 162 -69t58 -167q-7 -100 -84.5 -170t-171.5 -70z" />
<glyph unicode="&#x3c;" horiz-adv-x="1894" d="M223 643l59 352l1509 620l-66 -405l-1015 -382l-3 -18l889 -382l-68 -405z" />
<glyph unicode="=" horiz-adv-x="1894" d="M198 310l58 355h1349l-58 -355h-1349zM306 974l60 355h1349l-60 -355h-1349z" />
<glyph unicode="&#x3e;" horiz-adv-x="1894" d="M1631 643l-1511 -620l68 405l1013 382l3 19l-887 381l66 405l1307 -620z" />
<glyph unicode="?" horiz-adv-x="1584" d="M511 614l7 39q30 173 78 276t117.5 166.5t160.5 115.5q101 59 176 128.5t90 167.5q17 104 -43.5 166.5t-161.5 62.5q-97 0 -186.5 -63.5t-112.5 -186.5h-408q37 200 149.5 331t273.5 195t343 64q198 0 339.5 -65.5t208 -189.5t37.5 -299q-28 -176 -131 -293.5 t-258 -198.5q-129 -70 -198 -151.5t-95 -225.5l-7 -39h-379zM622 -26q-101 0 -165.5 70t-58.5 170q7 99 83.5 167.5t176.5 68.5q96 0 162 -69t58 -167q-7 -100 -84.5 -170t-171.5 -70z" />
<glyph unicode="@" horiz-adv-x="2902" d="M1734 2039q397 0 654.5 -152.5t363 -423.5t46.5 -627q-39 -245 -129.5 -435.5t-240 -303t-368.5 -124.5q-176 -13 -243.5 49.5t-66.5 165.5h-12q-33 -61 -111.5 -109t-183 -74t-217.5 -20q-155 9 -274.5 92t-174 242.5t-15.5 394.5q39 232 147.5 385t249.5 235.5 t278 101.5q116 17 214 -0.5t161.5 -55t73.5 -81.5h14l18 112h312l-161 -976q-20 -145 89 -145q104 0 180 138t123 431q40 236 -9 399.5t-163.5 265t-274 147.5t-339.5 46q-332 0 -574 -131.5t-388.5 -358.5t-194.5 -513q-77 -474 140 -726t706 -252q173 0 335 34.5t248 67.5 l52 -290q-69 -35 -182.5 -67t-251 -51.5t-279.5 -19.5q-425 0 -699.5 153t-384 442t-43.5 697q67 402 276 703t539 467.5t760 166.5zM1519 1103q-166 0 -273.5 -103t-136.5 -274q-17 -106 0.5 -200t84 -153t196.5 -59q185 0 275 105.5t121 309.5q29 180 -24 277t-243 97z " />
<glyph unicode="A" horiz-adv-x="2106" d="M403 0h-464l1047 2048h558l366 -2048h-464l-74 467h-739zM799 805h520l-122 775h-16z" />
<glyph unicode="B" horiz-adv-x="1861" d="M50 0l340 2048h820q339 0 485.5 -147.5t107.5 -377.5q-31 -180 -155 -292t-288 -148l-4 -20q116 -4 209 -65t139 -171t21 -261q-27 -162 -129 -290t-271.5 -202t-399.5 -74h-875zM543 354h353q180 0 275 70t114 185q20 127 -56.5 208t-234.5 81h-362zM682 1191h321 q132 0 232 69.5t119 190.5q18 112 -49.5 179.5t-210.5 67.5h-328z" />
<glyph unicode="C" horiz-adv-x="2118" d="M2076 1331h-432q4 170 -94 266t-268 96q-246 0 -426.5 -182.5t-235.5 -512.5q-52 -319 58 -481t333 -162q185 0 327 91t200 254h435q-55 -188 -189.5 -354.5t-336.5 -270t-459 -103.5q-279 0 -479 128t-287.5 369t-32.5 581q55 330 215.5 559t390.5 348t494 119 q244 0 424.5 -87.5t276.5 -254t86 -403.5z" />
<glyph unicode="D" horiz-adv-x="2048" d="M786 0h-736l340 2048h722q309 0 514 -126.5t288.5 -360.5t29.5 -559q-52 -314 -207 -538.5t-397 -344t-554 -119.5zM545 371h266q290 0 471 164t239 514q56 334 -65 481t-409 147h-286z" />
<glyph unicode="E" horiz-adv-x="1725" d="M50 0l340 2048h1380l-60 -357h-947l-80 -488h876l-60 -357h-876l-80 -489h951l-60 -357h-1384z" />
<glyph unicode="F" horiz-adv-x="1647" d="M50 0l340 2048h1356l-60 -357h-923l-80 -488h833l-60 -357h-833l-140 -846h-433z" />
<glyph unicode="G" horiz-adv-x="2142" d="M1638 1386q-16 144 -102.5 225.5t-253.5 81.5q-157 0 -293.5 -78t-232.5 -227t-131 -362q-53 -321 54 -496t350 -175q217 0 365.5 112.5t183.5 302.5h-439l54 326h857l-44 -258q-43 -270 -189 -464t-363.5 -298t-476.5 -104q-288 0 -484.5 127.5t-279 363t-29.5 559.5 q55 332 221 568t404 361t508 125q232 0 405 -88t267.5 -243.5t88.5 -358.5h-440z" />
<glyph unicode="H" horiz-adv-x="2101" d="M50 0l340 2048h433l-140 -845h879l140 845h432l-340 -2048h-432l140 846h-879l-140 -846h-433z" />
<glyph unicode="I" horiz-adv-x="790" d="M823 2048l-340 -2048h-433l340 2048h433z" />
<glyph unicode="J" horiz-adv-x="1605" d="M1210 2048h428l-236 -1431q-33 -198 -143.5 -343t-279 -223.5t-377.5 -78.5q-186 0 -326.5 66t-207.5 200t-34 338h428q-16 -124 39 -190.5t167 -66.5q122 0 202 78.5t105 225.5z" />
<glyph unicode="K" horiz-adv-x="1942" d="M50 0l340 2048h433l-149 -903h27l886 903h519l-909 -917l578 -1131h-518l-418 842l-258 -262l-98 -580h-433z" />
<glyph unicode="L" horiz-adv-x="1598" d="M50 0l340 2048h433l-280 -1691h878l-60 -357h-1311z" />
<glyph unicode="M" horiz-adv-x="2576" d="M390 2048h534l337 -1376h24l791 1376h534l-340 -2048h-420l222 1333h-18l-748 -1323h-287l-308 1328h-17l-224 -1338h-420z" />
<glyph unicode="N" horiz-adv-x="2070" d="M2103 2048l-340 -2048h-374l-675 1289h-16l-215 -1289h-433l340 2048h380l672 -1288h17l213 1288h431z" />
<glyph unicode="O" horiz-adv-x="2202" d="M2098 996q-55 -328 -216 -557t-391.5 -348t-496.5 -119q-279 0 -481 127t-291.5 367.5t-33.5 580.5q54 329 215 558.5t393 350t499 120.5q278 0 478.5 -128t290.5 -369.5t34 -582.5zM1667 1047q52 316 -55 481t-334 165q-247 0 -426.5 -182t-233.5 -515q-55 -317 56 -479 t336 -162q245 0 423.5 179.5t233.5 512.5z" />
<glyph unicode="P" horiz-adv-x="1822" d="M50 0l340 2048h808q233 0 382 -88.5t210 -245t27 -360.5q-33 -205 -147 -360.5t-295 -242.5t-418 -87h-363l-111 -664h-433zM652 1011h292q188 0 295 95.5t132 247.5q25 154 -50 247t-263 93h-292z" />
<glyph unicode="Q" horiz-adv-x="2218" d="M2098 996q-45 -264 -159.5 -464t-277.5 -330l260 -370h-404l-147 206q-179 -66 -376 -66q-279 0 -481 127t-291.5 367.5t-33.5 580.5q54 329 215 558.5t393 350t499 120.5q278 0 478.5 -128t290.5 -369.5t34 -582.5zM934 712h368l127 -182q88 88 149 218t89 299 q52 316 -55 481t-334 165q-247 0 -426.5 -182t-233.5 -515q-55 -317 56 -479t336 -162q77 0 148 18z" />
<glyph unicode="R" horiz-adv-x="1865" d="M50 0l340 2048h808q349 0 511 -182t112 -487q-34 -210 -153 -359t-306 -224l303 -796h-478l-268 726h-315l-121 -726h-433zM662 1074h294q369 0 419 305q51 315 -317 315h-292z" />
<glyph unicode="S" horiz-adv-x="1844" d="M1401 1453q5 125 -73 193t-233 68q-159 0 -254 -64.5t-112 -164.5q-22 -109 66.5 -166.5t215.5 -87.5l176 -44q171 -40 297 -116t186 -195.5t31 -290.5q-47 -281 -283.5 -447.5t-612.5 -166.5q-371 0 -566 170.5t-148 501.5h419q-16 -154 82.5 -231.5t267.5 -77.5 q167 0 276.5 70t127.5 182q18 103 -63.5 160t-242.5 96l-214 56q-247 63 -374.5 197.5t-91.5 360.5q32 187 155.5 326t312 216.5t412.5 77.5q228 0 385 -78.5t229 -218.5t44 -326h-415z" />
<glyph unicode="T" horiz-adv-x="1882" d="M252 1691l60 357h1682l-60 -357h-627l-280 -1691h-428l280 1691h-627z" />
<glyph unicode="U" horiz-adv-x="2054" d="M1658 2048h430l-224 -1354q-38 -232 -174.5 -393.5t-342 -245.5t-452.5 -84q-248 0 -425.5 84t-259.5 245.5t-44 393.5l224 1354h433l-221 -1339q-27 -164 74.5 -258t281.5 -94t315.5 94t162.5 258z" />
<glyph unicode="V" horiz-adv-x="2106" d="M760 2048l238 -1556h19l753 1556h480l-1046 -2048h-558l-367 2048h481z" />
<glyph unicode="W" horiz-adv-x="2917" d="M511 0l-246 2048h473l104 -1423h17l609 1423h405l138 -1426h18l574 1426h473l-926 -2048h-422l-166 1339h-16l-613 -1339h-422z" />
<glyph unicode="X" horiz-adv-x="2012" d="M782 2048l296 -698h16l532 698h503l-793 -1024l467 -1024h-489l-304 699h-16l-536 -699h-505l813 1024l-461 1024h477z" />
<glyph unicode="Y" horiz-adv-x="2040" d="M270 2048h485l321 -882h22l611 882h485l-966 -1324l-121 -724h-430l121 724z" />
<glyph unicode="Z" horiz-adv-x="1878" d="M28 0l44 257l1261 1434h-1027l60 357h1568l-43 -257l-1262 -1434h1027l-60 -357h-1568z" />
<glyph unicode="[" horiz-adv-x="1152" d="M95 -445l419 2531h789l-53 -318h-378l-312 -1894h378l-54 -319h-789z" />
<glyph unicode="\" horiz-adv-x="1198" d="M285 2048h373l292 -2356h-374z" />
<glyph unicode="]" horiz-adv-x="1152" d="M1075 2087l-419 -2531h-789l53 318h378l312 1894h-378l54 319h789z" />
<glyph unicode="^" horiz-adv-x="1373" d="M153 1120l566 883h344l277 -883h-310l-167 597h-16l-357 -597h-337z" />
<glyph unicode="_" horiz-adv-x="1342" d="M1215 0l-53 -323h-1344l52 323h1345z" />
<glyph unicode="`" horiz-adv-x="1400" d="M1163 1734h-301l-230 455h394z" />
<glyph unicode="a" horiz-adv-x="1634" d="M476 -29q-219 0 -345 115.5t-89 342.5q29 171 126 269t236.5 144t293.5 60q202 20 292.5 42.5t103.5 95.5v6q15 95 -34.5 147t-157.5 52q-114 0 -193 -50t-114 -127l-388 32q78 210 273.5 333t472.5 123q170 0 309.5 -54t212.5 -168.5t43 -297.5l-173 -1036h-404l36 213 h-12q-73 -107 -196 -174.5t-293 -67.5zM647 265q140 0 243 81.5t124 202.5l26 163q-27 -17 -82 -29.5t-115.5 -22t-107.5 -17.5q-115 -16 -192.5 -63t-91.5 -137q-13 -87 41.5 -132.5t154.5 -45.5z" />
<glyph unicode="b" horiz-adv-x="1789" d="M50 0l340 2048h426l-126 -770h12q38 63 102.5 127t159 107.5t222.5 43.5q169 0 295.5 -87.5t182.5 -263t12 -439.5q-42 -257 -154.5 -433.5t-269 -267t-331.5 -90.5q-124 0 -203 41t-123.5 103.5t-63.5 126.5h-21l-40 -246h-420zM595 768q-33 -205 30.5 -329.5 t217.5 -124.5q158 0 261.5 126.5t136.5 327.5q32 200 -29.5 324.5t-219.5 124.5q-154 0 -259 -121.5t-138 -327.5z" />
<glyph unicode="c" horiz-adv-x="1654" d="M732 -30q-236 0 -389 100.5t-213.5 279.5t-21.5 412q38 236 159.5 414.5t307.5 279t419 100.5q301 0 460.5 -161t127.5 -427h-401q2 114 -58.5 185t-176.5 71q-150 0 -260 -119t-145 -337q-37 -220 32.5 -340.5t218.5 -120.5q111 0 197 67t126 189h402 q-40 -176 -148 -310t-270 -208.5t-367 -74.5z" />
<glyph unicode="d" horiz-adv-x="1790" d="M607 -25q-176 0 -302.5 90.5t-179.5 267t-11 433.5q44 264 158 439.5t270 263t325 87.5q129 0 208.5 -43.5t122 -107.5t59.5 -127h13l128 770h426l-340 -2048h-420l41 246h-18q-40 -64 -105.5 -126.5t-158 -103.5t-216.5 -41zM794 314q154 0 260.5 124.5t140.5 329.5 q34 206 -31.5 327.5t-220.5 121.5q-158 0 -259.5 -124.5t-133.5 -324.5q-34 -201 26.5 -327.5t217.5 -126.5z" />
<glyph unicode="e" horiz-adv-x="1685" d="M738 -30q-355 0 -523 213t-107 578q40 237 161.5 416t305.5 279t410 100q204 0 353 -86t216 -259.5t23 -434.5l-19 -117h-1046l-2 -11q-29 -181 48 -270.5t240 -89.5q107 0 192.5 45t132.5 133l389 -26q-82 -214 -284.5 -342t-489.5 -128zM560 923h639q23 137 -48 226 t-209 89q-92 0 -172 -43.5t-136 -115.5t-74 -156z" />
<glyph unicode="f" horiz-adv-x="1100" d="M1138 1536l-53 -320h-305l-203 -1216h-426l203 1216h-217l53 320h217l19 111q40 251 204 374t381 123q98 0 177.5 -15t115.5 -27l-126 -320q-25 8 -59.5 15t-73.5 7q-93 0 -137 -43.5t-58 -121.5l-17 -103h305z" />
<glyph unicode="g" horiz-adv-x="1783" d="M638 -598q-312 0 -468 122t-167 296l404 53q17 -64 81.5 -114.5t206.5 -50.5q139 0 242 66t127 217l46 281h-18q-57 -95 -176 -172.5t-302 -77.5q-173 0 -301 81t-184.5 247t-14.5 421q43 262 157.5 436t271 261.5t324.5 87.5q129 0 208.5 -43.5t122.5 -107.5t61 -127h17 l42 258h423l-258 -1551q-31 -192 -148.5 -321.5t-297.5 -195.5t-399 -66zM798 342q153 0 258.5 114t138.5 317q33 202 -32.5 323t-220.5 121q-159 0 -259.5 -124t-132.5 -320q-32 -199 29.5 -315t218.5 -116z" />
<glyph unicode="h" horiz-adv-x="1758" d="M618 888l-148 -888h-425l340 2048h413l-128 -783h17q74 136 203.5 213.5t304.5 77.5q239 0 359.5 -154t75.5 -424l-164 -978h-425l150 902q23 142 -36.5 221t-188.5 79q-130 0 -226.5 -82.5t-121.5 -231.5z" />
<glyph unicode="i" d="M42 0l256 1536h426l-256 -1536h-426zM554 1736q-95 0 -156 64t-50 152q11 89 86 152t169 63q95 0 155.5 -63t50.5 -152q-10 -88 -85 -152t-170 -64z" />
<glyph unicode="j" d="M298 1536h426l-267 -1607q-43 -267 -220 -387t-451 -113q-18 0 -36.5 0.5t-43.5 1.5l56 333q15 -1 28.5 -1.5t27.5 -0.5q102 0 151 44t65 130zM551 1734q-95 0 -156 64t-50 152q11 89 86 152t169 63q95 0 155.5 -63t50.5 -152q-10 -88 -85 -152t-170 -64z" />
<glyph unicode="k" horiz-adv-x="1638" d="M42 0l340 2048h426l-182 -1095h22l591 583h489l-680 -667l453 -869h-499l-315 620l-138 -132l-81 -488h-426z" />
<glyph unicode="l" d="M808 2048l-340 -2048h-426l340 2048h426z" />
<glyph unicode="m" horiz-adv-x="2568" d="M45 0l256 1536h405l-44 -271h17q71 136 196 213.5t282 77.5q156 0 254 -78.5t114 -212.5h16q68 133 205 212t306 79q213 0 326 -136.5t71 -386.5l-172 -1033h-426l160 949q20 128 -37.5 192t-159.5 64q-116 0 -193 -73.5t-95 -193.5l-159 -938h-413l162 958 q17 113 -36.5 180t-159.5 67t-190.5 -77.5t-103.5 -205.5l-156 -922h-425z" />
<glyph unicode="n" horiz-adv-x="1751" d="M618 888l-148 -888h-425l256 1536h405l-44 -271h17q73 135 206 213t305 78q239 0 359 -154.5t75 -423.5l-164 -978h-426l151 902q23 141 -35.5 220.5t-187.5 79.5q-130 0 -224 -82.5t-120 -231.5z" />
<glyph unicode="o" horiz-adv-x="1728" d="M738 -30q-235 0 -388.5 100.5t-216 280.5t-23.5 418q38 236 158 413t305 275.5t417 98.5q234 0 388 -100.5t216.5 -280.5t23.5 -419q-38 -235 -158.5 -412t-305 -275.5t-416.5 -98.5zM781 300q161 0 267.5 134t140.5 337q32 199 -26 329.5t-216 130.5q-162 0 -268.5 -135 t-139.5 -338q-32 -198 26.5 -328t215.5 -130z" />
<glyph unicode="p" horiz-adv-x="1781" d="M-54 -576l352 2112h420l-42 -258h18q38 63 102.5 127t159 107.5t222.5 43.5q169 0 295.5 -87.5t182.5 -263t12 -439.5q-42 -257 -154.5 -433.5t-269 -267t-331.5 -90.5q-124 0 -203 41t-123.5 103.5t-63.5 126.5h-15l-136 -822h-426zM587 768q-33 -205 30.5 -329.5 t217.5 -124.5q158 0 260.5 126.5t137.5 327.5q32 200 -29.5 324.5t-219.5 124.5q-154 0 -259 -121.5t-138 -327.5z" />
<glyph unicode="q" horiz-adv-x="1781" d="M1392.28 -576l347.316 2112h-420l-43.4277 -258h-18q-17.1396 63 -60.4482 127t-123.405 107.5t-208.097 43.5q-169 0 -324.473 -87.5t-269.583 -263q-114.111 -175.5 -157.525 -439.5q-43.0967 -257 10.9609 -433.5q54.0586 -176.5 180.593 -267 q126.533 -90.5 301.533 -90.5q124 0 216.576 41t157.771 103.5t105.386 126.5h15l-136.177 -822h426zM1196.3 768q-34.8789 -205 -139.603 -329.5t-258.724 -124.5q-158 0 -218.614 126.5t-29.0596 327.5q34.2227 200 136.947 324.5q102.724 124.5 260.724 124.5 q154 0 218.77 -121.5t29.5596 -327.5z" />
<glyph unicode="r" horiz-adv-x="1207" d="M42 0l256 1536h413l-45 -268h16q66 143 176.5 216.5t241.5 73.5q122 0 198 -56l-184 -350q-28 14 -62.5 24t-78.5 10q-128 0 -232 -88t-130 -229l-143 -869h-426z" />
<glyph unicode="s" horiz-adv-x="1582" d="M1501 1098l-387 -24q-4 76 -57 128t-158 52q-106 0 -187.5 -48t-92.5 -123q-9 -49 25 -81.5t137 -55.5l270 -56q436 -92 381 -433q-25 -147 -128.5 -256.5t-264 -170t-355.5 -60.5q-313 0 -476 128.5t-157 346.5l416 22q11 -188 233 -190q119 -2 202.5 49t94.5 126 q8 53 -30 84.5t-136 52.5l-256 53q-439 89 -378 456q36 215 229.5 336.5t479.5 121.5q299 0 451 -123t144 -335z" />
<glyph unicode="t" horiz-adv-x="1094" d="M1115 1536l-53 -320h-290l-124 -744q-15 -88 20.5 -119t99.5 -31q30 0 61 5.5t47 8.5l16 -317q-36 -11 -96 -24.5t-143 -15.5q-235 -9 -357 101.5t-82 335.5l132 800h-210l54 320h209l61 368h426l-61 -368h290z" />
<glyph unicode="u" horiz-adv-x="1751" d="M1136 654l147 882h426l-256 -1536h-409l46 279h-16q-71 -135 -207 -217t-309 -82q-232 0 -349.5 154.5t-74.5 423.5l164 978h426l-150 -902q-22 -136 37.5 -215t180.5 -79q115 0 217 80t127 234z" />
<glyph unicode="v" horiz-adv-x="1650" d="M1730 1536l-793 -1536h-480l-281 1536h447l136 -1099h16l501 1099h454z" />
<glyph unicode="w" horiz-adv-x="2394" d="M345 0l-162 1536h431l66 -1032h14l420 1032h423l80 -1026h13l406 1026h430l-673 -1536h-451l-104 966h-19l-424 -966h-450z" />
<glyph unicode="x" horiz-adv-x="1616" d="M654 1536l192 -537l379 537h437l-573 -768l329 -768h-435l-215 531l-386 -531h-440l584 768l-312 768h440z" />
<glyph unicode="y" horiz-adv-x="1650" d="M191 -598q-88 0 -151 15.5t-96 31.5l150 330q107 -34 185.5 -17.5t141.5 120.5l43 77l-288 1577h445l131 -1128h16l508 1128h454l-884 -1712q-96 -184 -258.5 -303t-396.5 -119z" />
<glyph unicode="z" horiz-adv-x="1615" d="M37 0l41 254l905 931l4 11h-726l57 340h1240l-44 -277l-857 -908l-4 -11h732l-55 -340h-1293z" />
<glyph unicode="{" horiz-adv-x="1152" d="M884 -445q-151 0 -274 19t-206 76t-116 168.5t-4 296.5l35 222q25 154 -29.5 223t-227.5 69h-4l64 384h4q171 0 251.5 69t104.5 223l36 221q29 185 98 296.5t172 168.5t233.5 76t281.5 19l-53 -318q-178 0 -243 -69.5t-89 -215.5l-48 -292q-13 -77 -53 -146t-127 -122 t-239 -82l-6 -40q142 -29 211 -82t87 -122.5t5 -146.5l-49 -292q-25 -146 18 -215t221 -69z" />
<glyph unicode="|" horiz-adv-x="1040" d="M962 2312l-465 -2806h-373l465 2806h373z" />
<glyph unicode="}" horiz-adv-x="1152" d="M286 2087q151 0 274 -19t206 -76t116 -168.5t4 -296.5l-35 -222q-25 -154 29.5 -223t227.5 -69h4l-64 -384h-4q-171 0 -251.5 -69t-104.5 -223l-36 -221q-29 -185 -98 -296.5t-172 -168.5t-233.5 -76t-281.5 -19l53 318q178 0 243 69.5t89 215.5l48 292q13 77 53 146 t127 122t239 82l6 40q-142 29 -211 82t-87 122.5t-5 146.5l49 292q25 146 -18 215t-221 69z" />
<glyph unicode="~" horiz-adv-x="1894" d="M170 553q38 285 181 436t347 151q95 0 173.5 -39t173.5 -135q50 -51 85 -77.5t87 -26.5q73 0 127.5 56t72.5 176h326q-37 -283 -184 -435.5t-345 -152.5q-100 0 -179 42t-169 133q-54 54 -86.5 79t-85.5 25q-70 0 -125 -53.5t-72 -178.5h-327z" />
<glyph unicode="&#xa1;" horiz-adv-x="914" d="M25 -518l276 1434h364l-197 -1434h-443zM564 1556q101 0 165.5 -70t58.5 -170q-7 -99 -83.5 -167.5t-176.5 -68.5q-96 0 -162 69t-58 167q7 100 84.5 170t171.5 70z" />
<glyph unicode="&#xa2;" horiz-adv-x="1654" d="M600 -256l38 231q-205 20 -335.5 124.5t-181 275t-13.5 387.5q35 219 143 389.5t273.5 275t373.5 124.5l38 229h186l-38 -228q259 -25 393 -181.5t105 -402.5h-401q1 92 -38 156.5t-115 87.5l-147 -893q170 48 234 244h402q-56 -244 -239 -404t-454 -185l-38 -230h-186z M695 323l147 885q-113 -36 -193 -149t-108 -291q-30 -181 12 -295.5t142 -149.5z" />
<glyph unicode="&#xa3;" horiz-adv-x="1891" d="M1558 0h-1488l60 357h131q68 14 99.5 86t42.5 151l29 221h-233l59 341h218l41 313q25 195 130.5 330.5t265.5 206t346 70.5q209 0 344 -76t188.5 -209t16.5 -306l-402 11q24 128 -38.5 180.5t-158.5 52.5q-94 0 -169 -64t-97 -196l-40 -313h453l-59 -341h-438l-25 -197 q-21 -163 -122 -261h906z" />
<glyph unicode="&#xa4;" horiz-adv-x="2154" d="M246 836q23 143 85 271.5t154 233.5l-167 201l224 196l169 -200q116 75 248 116.5t270 41.5q139 0 258.5 -43t212.5 -121l240 206l162 -196l-244 -207q55 -104 75 -231t-3 -268q-23 -136 -80.5 -258.5t-141.5 -224.5l163 -191l-228 -196l-153 185q-121 -85 -260.5 -132 t-284.5 -47t-268.5 46.5t-216.5 129.5l-215 -182l-159 196l222 187q-50 103 -67.5 226.5t5.5 260.5zM502 836q-29 -169 26.5 -305.5t175.5 -217t284 -80.5q161 0 307 80.5t248 217t131 305.5q28 171 -28.5 307.5t-176.5 216t-281 79.5q-165 0 -310.5 -79.5t-246 -216 t-129.5 -307.5z" />
<glyph unicode="&#xa5;" horiz-adv-x="1611" d="M696 2048l192 -786l451 786h444l-621 -992h304l-40 -247h-405l-25 -149h406l-43 -247h-404l-69 -413h-428l69 413h-437l43 247h435l25 149h-436l40 247h345l-290 992h444z" />
<glyph unicode="&#xa6;" horiz-adv-x="971" d="M262 571h380l-158 -955h-381zM888 2048l-158 -951h-381l158 951h381z" />
<glyph unicode="&#xa7;" horiz-adv-x="1670" d="M1531 1540h-374q14 77 -31.5 128.5t-149.5 51.5q-79 0 -143.5 -35t-75.5 -107q-13 -72 43.5 -123.5t111.5 -75.5l357 -177q36 -18 87 -52t95.5 -88t63.5 -133.5t-9 -188.5q-21 -83 -74.5 -140.5t-114.5 -91t-107 -46.5l-8 -4q149 -150 112 -372q-26 -158 -123 -270 t-241 -171t-312 -59q-184 0 -313.5 68t-187.5 191.5t-31 290.5h376q-15 -94 44.5 -145t176.5 -46q77 2 148 35t84 106q12 78 -44.5 124.5t-108.5 74.5l-352 173q-39 18 -91 52t-97 89t-64 135t8 190q21 84 72 141t113 91t116 48v3q-64 74 -95 165t-12 206q24 144 116 256.5 t232 177t308 64.5q176 0 295.5 -69.5t172 -190.5t27.5 -276zM1152 718q34 106 -130 181l-308 151q-50 25 -104.5 -8t-71.5 -96q-32 -108 133 -183l307 -149q44 -21 101 10t73 94z" />
<glyph unicode="&#xa8;" horiz-adv-x="1506" d="M1246 1746q-95 0 -154 67.5t-43 161.5q13 76 76 127t140 51q97 0 153 -67t40 -162q-10 -73 -72 -125.5t-140 -52.5zM634 1746q-95 0 -153.5 68.5t-43.5 160.5q13 76 76 127t140 51q97 0 153 -67t40 -162q-10 -73 -72 -125.5t-140 -52.5z" />
<glyph unicode="&#xa9;" horiz-adv-x="2418" d="M244 1004q36 218 145.5 404.5t271 327t356 218.5t400.5 78q208 0 377.5 -78t285 -218.5t163 -327t11.5 -404.5q-36 -219 -145.5 -407t-271 -328t-357 -218.5t-403.5 -78.5q-206 0 -374.5 78.5t-283.5 218.5t-163 328t-12 407zM417 1004q-40 -244 40.5 -438.5t250 -308 t397.5 -113.5q173 0 334.5 65t296 182t225 273.5t120.5 339.5q40 242 -40.5 436t-251 307t-400.5 113q-171 0 -332 -65t-295 -181.5t-224.5 -272t-120.5 -337.5zM1452 820h223q-35 -216 -183 -324t-366 -108q-225 0 -334.5 147.5t-71.5 384.5l28 164q27 158 107.5 278 t202.5 187t272 67q218 0 330 -108t75 -324h-221q24 132 -33 190t-183 58q-135 0 -218 -97.5t-110 -250.5l-28 -164q-24 -153 28.5 -250.5t187.5 -97.5q126 0 200 56.5t94 191.5z" />
<glyph unicode="&#xaa;" horiz-adv-x="1372" d="M918 1063q-52 -46 -127.5 -78.5t-176.5 -32.5q-168 0 -245.5 85.5t-53.5 226.5q24 153 158 235.5t378 82.5h143l12 70q12 83 -20 129.5t-117 46.5q-92 0 -149.5 -35t-69.5 -101l-241 18q24 140 158.5 231t333.5 91q185 0 283.5 -95.5t68.5 -284.5l-72 -432 q-10 -58 -14.5 -121.5t8.5 -128.5h-251q-6 46 -6 93zM967 1422h-144q-121 0 -185.5 -46t-73.5 -106q-9 -55 25 -87.5t120 -32.5q56 0 119 25t107 60z" />
<glyph unicode="&#xab;" horiz-adv-x="1762" d="M862 220h-386l-304 600l2 8h-2l4 20l504 600h386l-482 -612zM1520 220h-386l-304 600l2 8h-2l4 20l504 600h386l-482 -612z" />
<glyph unicode="&#xac;" horiz-adv-x="1633" d="M1466 1108l-18 -108h2l-80 -484h-283l59 356h-901l40 236h1181z" />
<glyph unicode="&#xad;" horiz-adv-x="1320" d="M1167 1010l-55 -338h-935l55 338h935z" />
<glyph unicode="&#xae;" horiz-adv-x="2418" d="M244 1004q36 218 145.5 404.5t271 327t356 218.5t400.5 78q208 0 377.5 -78t285 -218.5t163 -327t11.5 -404.5q-36 -219 -145.5 -407t-271 -328t-357 -218.5t-403.5 -78.5q-206 0 -374.5 78.5t-283.5 218.5t-163 328t-12 407zM417 1004q-40 -244 40.5 -438.5t250 -308 t397.5 -113.5q173 0 334.5 65t296 182t225 273.5t120.5 339.5q40 242 -40.5 436t-251 307t-400.5 113q-171 0 -332 -65t-295 -181.5t-224.5 -272t-120.5 -337.5zM1249 900h-220l-77 -464h-215l196 1168h397q212 0 320.5 -92.5t78.5 -269.5q-25 -154 -195 -237 q77 -44 98.5 -121.5t6.5 -175.5l-16 -76q-15 -110 -4 -176l-4 -20h-219q-6 24 -2 69.5t9 83.5q2 13 3 24t2 19l16 76q16 96 -23.5 144t-151.5 48zM1060 1084h186q98 0 179 40.5t95 119.5q16 99 -34 137.5t-188 38.5h-182z" />
<glyph unicode="&#xaf;" horiz-adv-x="1593" d="M1494 2048l-36 -231h-977l37 231h976z" />
<glyph unicode="&#xb0;" horiz-adv-x="1294" d="M695 1072q-136 0 -236.5 66.5t-147.5 178t-24 246.5q21 136 105 247.5t207 177.5t260 66q135 0 235.5 -66t149 -177.5t26.5 -247.5q-24 -135 -109.5 -246.5t-208 -178t-257.5 -66.5zM744 1356q84 0 154.5 60.5t87.5 146.5q12 86 -38.5 146.5t-134.5 60.5 q-87 0 -158.5 -60.5t-83.5 -146.5q-16 -86 34.5 -146.5t138.5 -60.5z" />
<glyph unicode="&#xb1;" horiz-adv-x="1894" d="M267 909l55 329h524l57 346h359l-58 -346h526l-55 -329h-525l-58 -346h-358l57 346h-524zM129 77l55 339h1408l-55 -339h-1408z" />
<glyph unicode="&#xb2;" horiz-adv-x="1190" d="M163 1024l34 221l557 389q95 69 156 120.5t73 121.5q11 72 -39.5 111t-137.5 39q-84 0 -149.5 -42t-80.5 -127h-296q29 188 184 299.5t372 111.5q230 0 339.5 -116t85.5 -280q-18 -119 -106.5 -223.5t-304.5 -231.5l-205 -132l-3 -11h538l-40 -250h-977z" />
<glyph unicode="&#xb3;" horiz-adv-x="1242" d="M674 1008q-235 0 -368.5 103t-109.5 269h307q-7 -55 44.5 -86.5t136.5 -31.5q101 0 172 42t82 106q12 63 -42.5 94.5t-164.5 31.5h-145l33 227h135q97 0 162.5 43.5t77.5 104.5q10 52 -23.5 83.5t-120.5 31.5q-79 0 -156 -32.5t-88 -91.5h-295q20 110 99 192t196 128 t252 46q150 0 252 -51.5t148.5 -136t30.5 -183.5q-16 -104 -96 -160.5t-202 -72.5v-10q135 -14 207 -94t54 -199q-25 -157 -184.5 -255t-393.5 -98z" />
<glyph unicode="&#xb4;" horiz-adv-x="1400" d="M557 1734l288 455h393l-380 -455h-301z" />
<glyph unicode="&#xb5;" horiz-adv-x="1877" d="M-49 -557l347 2093h426l-147 -882q-22 -139 58.5 -226.5t232.5 -87.5q153 0 262.5 87.5t131.5 226.5l147 882h425l-256 -1536h-408l37 218h-12q-64 -98 -165.5 -153.5t-218.5 -55.5q-112 0 -196 55.5t-114 153.5h-12l-129 -775h-409z" />
<glyph unicode="&#xb6;" horiz-adv-x="1717" d="M1071 0l286 1720h-249l-157 -960h-118q-225 0 -366.5 83.5t-198 229t-26.5 331.5q32 184 136 329.5t273 230t394 84.5h705l-340 -2048h-339z" />
<glyph unicode="&#xb7;" horiz-adv-x="837" d="M331 724q-101 0 -165.5 70t-58.5 170q7 99 83.5 167.5t176.5 68.5q96 0 162 -69t58 -167q-7 -100 -84.5 -170t-171.5 -70z" />
<glyph unicode="&#xb8;" horiz-adv-x="1054" d="M307 8h196l-32 -87q100 -16 156 -77.5t36 -165.5q-22 -149 -175.5 -237.5t-405.5 -88.5l30 190q125 0 201.5 30.5t89.5 94.5q12 62 -31.5 93.5t-145.5 44.5z" />
<glyph unicode="&#xb9;" horiz-adv-x="898" d="M937 2252l-207 -1228h-300l145 858h-12q-24 -33 -101 -56t-190 -22l34 244q90 0 161.5 32.5t117 80.5t55.5 91h297z" />
<glyph unicode="&#xba;" horiz-adv-x="1365" d="M304 1436l16 106q24 143 102 253.5t198.5 173.5t269.5 63q228 0 337.5 -137.5t73.5 -352.5l-16 -106q-36 -213 -189 -349.5t-380 -136.5q-229 0 -338.5 136.5t-73.5 349.5zM567 1542l-16 -106q-21 -123 27.5 -203.5t171.5 -80.5q121 0 194 80.5t94 203.5l16 106 q21 120 -25.5 203t-170.5 83q-120 0 -195 -83t-96 -203z" />
<glyph unicode="&#xbb;" horiz-adv-x="1772" d="M50 220l482 612l-278 616h386l304 -600l-2 -8h2l-4 -20l-504 -600h-386zM718 220l482 612l-278 616h386l304 -600l-2 -8h2l-4 -20l-504 -600h-386z" />
<glyph unicode="&#xbc;" horiz-adv-x="2474" d="M296 0l1525 2048h264l-1526 -2048h-263zM834 2048l-180 -1088h-276l131 750h-12q-24 -27 -89.5 -45t-172.5 -17l31 221q126 -4 207 59t95 120h266zM1287 174l35 222l627 692h351l-114 -688h154l-31 -226h-160l-29 -174h-269l30 174h-594zM1924 400l65 390h-6l-377 -381 v-9h318z" />
<glyph unicode="&#xbd;" horiz-adv-x="2542" d="M296 0l1525 2048h264l-1526 -2048h-263zM834 2048l-180 -1088h-276l131 750h-12q-24 -27 -89.5 -45t-172.5 -17l31 221q126 -4 207 59t95 120h266zM1447 0l35 200l500 343q78 56 136.5 103t68.5 105q11 62 -34.5 96.5t-125.5 34.5q-73 0 -131.5 -35t-73.5 -111h-269 q26 164 165 266t339 102q202 0 303 -104t80 -250q-15 -104 -94.5 -200t-277.5 -204l-182 -108l-2 -10h481l-35 -228h-883z" />
<glyph unicode="&#xbe;" horiz-adv-x="2728" d="M550 0l1525 2048h264l-1526 -2048h-263zM1541 174l35 222l627 692h351l-114 -688h154l-31 -226h-160l-29 -174h-269l30 174h-594zM2178 400l65 390h-6l-377 -381v-9h318zM602 944q-136 0 -240 40.5t-157.5 115t-38.5 176.5h280q-4 -49 44.5 -74.5t120.5 -25.5 q87 0 153 36t76 94q17 103 -187 103h-136l29 208h126q80 0 141.5 35.5t73.5 96.5q18 93 -130 93q-73 0 -140 -27.5t-78 -74.5h-267q17 95 88.5 168t178 114.5t227.5 41.5q136 0 227.5 -47.5t133 -123t27.5 -159.5q-15 -95 -89 -145.5t-175 -62.5v-8q129 -14 188.5 -88 t43.5 -176q-23 -138 -168 -224t-352 -86z" />
<glyph unicode="&#xbf;" horiz-adv-x="1584" d="M1071 901l-7 -39q-30 -173 -78 -276t-117.5 -166.5t-160.5 -115.5q-101 -59 -176 -128.5t-90 -167.5q-17 -104 43.5 -166.5t161.5 -62.5q97 0 186.5 63.5t112.5 186.5h408q-37 -200 -149.5 -331t-273.5 -195t-343 -64q-198 0 -339.5 65.5t-208 189.5t-37.5 299 q28 176 131 293.5t258 198.5q129 70 198 151.5t95 225.5l7 39h379zM960 1541q101 0 165.5 -70t58.5 -170q-7 -99 -83.5 -167.5t-176.5 -68.5q-96 0 -162 69t-58 167q7 100 84.5 170t171.5 70z" />
<glyph unicode="&#xc0;" horiz-adv-x="2106" d="M403 0h-464l1047 2048h558l366 -2048h-464l-74 467h-739zM799 805h520l-122 775h-16zM1454 2246h-301l-230 455h394z" />
<glyph unicode="&#xc1;" horiz-adv-x="2106" d="M403 0h-464l1047 2048h558l366 -2048h-464l-74 467h-739zM799 805h520l-122 775h-16zM1147 2246l288 455h393l-380 -455h-301z" />
<glyph unicode="&#xc2;" horiz-adv-x="2106" d="M403 0h-464l1047 2048h558l366 -2048h-464l-74 467h-739zM799 805h520l-122 775h-16zM1096.15 2232l240.792 244l160.208 -244h363l2.63574 14l-331.31 440h-317l-479.69 -440l-2.63574 -14h364z" />
<glyph unicode="&#xc3;" horiz-adv-x="2106" d="M403 0h-464l1047 2048h558l366 -2048h-464l-74 467h-739zM799 805h520l-122 775h-16zM1013 2250l-235 3q31 191 142 293.5t247 102.5q69 0 116.5 -22.5t83 -52.5t69.5 -52.5t77 -22.5q57 0 95 43.5t48 111.5l231 -7q-33 -190 -143.5 -291.5t-247.5 -103.5 q-74 0 -120.5 22.5t-79 52.5t-64.5 52.5t-78 22.5q-52 0 -90.5 -41t-50.5 -111z" />
<glyph unicode="&#xc4;" horiz-adv-x="2106" d="M403 0h-464l1047 2048h558l366 -2048h-464l-74 467h-739zM799 805h520l-122 775h-16zM1634 2258q-95 0 -154 67.5t-43 161.5q13 76 76 127t140 51q97 0 153 -67t40 -162q-10 -73 -72 -125.5t-140 -52.5zM1022 2258q-95 0 -153.5 68.5t-43.5 160.5q13 76 76 127t140 51 q97 0 153 -67t40 -162q-10 -73 -72 -125.5t-140 -52.5z" />
<glyph unicode="&#xc5;" horiz-adv-x="2106" d="M403 0h-464l1047 2048h558l366 -2048h-464l-74 467h-739zM799 805h520l-122 775h-16zM1284 2158q-133 0 -213 91t-60 218q14 86 69 156.5t135 112t169 41.5q136 0 218.5 -90.5t58.5 -219.5q-25 -130 -131 -219.5t-246 -89.5zM1313 2331q57 0 107.5 40.5t57.5 95.5 q8 59 -26.5 97.5t-96.5 38.5q-56 0 -103.5 -40t-57.5 -96t24.5 -96t94.5 -40z" />
<glyph unicode="&#xc6;" horiz-adv-x="2901" d="M-61 0l1217 2048h1790l-60 -357h-947l-80 -488h876l-60 -357h-876l-80 -489h951l-60 -357h-1384l78 467h-619l-270 -467h-476zM881 805h479l137 817h-143z" />
<glyph unicode="&#xc7;" horiz-adv-x="2118" d="M2076 1331h-432q4 170 -94 266t-268 96q-246 0 -426.5 -182.5t-235.5 -512.5q-52 -319 58 -481t333 -162q185 0 327 91t200 254h435q-55 -188 -189.5 -354.5t-336.5 -270t-459 -103.5q-279 0 -479 128t-287.5 369t-32.5 581q55 330 215.5 559t390.5 348t494 119 q244 0 424.5 -87.5t276.5 -254t86 -403.5zM870 6h196l-32 -87q100 -16 156 -77.5t36 -165.5q-22 -149 -175.5 -237.5t-405.5 -88.5l30 190q125 0 201.5 30.5t89.5 94.5q12 62 -31.5 93.5t-145.5 44.5z" />
<glyph unicode="&#xc8;" horiz-adv-x="1725" d="M50 0l340 2048h1380l-60 -357h-947l-80 -488h876l-60 -357h-876l-80 -489h951l-60 -357h-1384zM1273 2246h-301l-230 455h394z" />
<glyph unicode="&#xc9;" horiz-adv-x="1725" d="M50 0l340 2048h1380l-60 -357h-947l-80 -488h876l-60 -357h-876l-80 -489h951l-60 -357h-1384zM966 2246l288 455h393l-380 -455h-301z" />
<glyph unicode="&#xca;" horiz-adv-x="1725" d="M50 0l340 2048h1380l-60 -357h-947l-80 -488h876l-60 -357h-876l-80 -489h951l-60 -357h-1384zM914.154 2232l240.792 244l160.208 -244h363l2.63574 14l-331.31 440h-317l-479.69 -440l-2.63574 -14h364z" />
<glyph unicode="&#xcb;" horiz-adv-x="1725" d="M50 0l340 2048h1380l-60 -357h-947l-80 -488h876l-60 -357h-876l-80 -489h951l-60 -357h-1384zM1453 2258q-95 0 -154 67.5t-43 161.5q13 76 76 127t140 51q97 0 153 -67t40 -162q-10 -73 -72 -125.5t-140 -52.5zM841 2258q-95 0 -153.5 68.5t-43.5 160.5q13 76 76 127 t140 51q97 0 153 -67t40 -162q-10 -73 -72 -125.5t-140 -52.5z" />
<glyph unicode="&#xcc;" horiz-adv-x="790" d="M823 2048l-340 -2048h-433l340 2048h433zM796 2246h-301l-230 455h394z" />
<glyph unicode="&#xcd;" horiz-adv-x="790" d="M823 2048l-340 -2048h-433l340 2048h433zM489 2246l288 455h393l-380 -455h-301z" />
<glyph unicode="&#xce;" horiz-adv-x="790" d="M823 2048l-340 -2048h-433l340 2048h433zM438.154 2232l240.792 244l160.208 -244h363l2.63574 14l-331.31 440h-317l-479.69 -440l-2.63574 -14h364z" />
<glyph unicode="&#xcf;" horiz-adv-x="790" d="M823 2048l-340 -2048h-433l340 2048h433zM976 2258q-95 0 -154 67.5t-43 161.5q13 76 76 127t140 51q97 0 153 -67t40 -162q-10 -73 -72 -125.5t-140 -52.5zM364 2258q-95 0 -153.5 68.5t-43.5 160.5q13 76 76 127t140 51q97 0 153 -67t40 -162q-10 -73 -72 -125.5 t-140 -52.5z" />
<glyph unicode="&#xd0;" horiz-adv-x="2048" d="M-57 954l44 251h997l-44 -251h-997zM786 0h-736l340 2048h722q309 0 514 -126.5t288.5 -360.5t29.5 -559q-52 -314 -207 -538.5t-397 -344t-554 -119.5zM545 371h266q290 0 471 164t239 514q56 334 -65 481t-409 147h-286z" />
<glyph unicode="&#xd1;" horiz-adv-x="2070" d="M2103 2048l-340 -2048h-374l-675 1289h-16l-215 -1289h-433l340 2048h380l672 -1288h17l213 1288h431zM996 2237l-235 3q31 191 142 293.5t247 102.5q69 0 116.5 -22.5t83 -52.5t69.5 -52.5t77 -22.5q57 0 95 43.5t48 111.5l231 -7q-33 -190 -143.5 -291.5t-247.5 -103.5 q-74 0 -120.5 22.5t-79 52.5t-64.5 52.5t-78 22.5q-52 0 -90.5 -41t-50.5 -111z" />
<glyph unicode="&#xd2;" horiz-adv-x="2202" d="M2098 996q-55 -328 -216 -557t-391.5 -348t-496.5 -119q-279 0 -481 127t-291.5 367.5t-33.5 580.5q54 329 215 558.5t393 350t499 120.5q278 0 478.5 -128t290.5 -369.5t34 -582.5zM1667 1047q52 316 -55 481t-334 165q-247 0 -426.5 -182t-233.5 -515q-55 -317 56 -479 t336 -162q245 0 423.5 179.5t233.5 512.5zM1501 2246h-301l-230 455h394z" />
<glyph unicode="&#xd3;" horiz-adv-x="2202" d="M2098 996q-55 -328 -216 -557t-391.5 -348t-496.5 -119q-279 0 -481 127t-291.5 367.5t-33.5 580.5q54 329 215 558.5t393 350t499 120.5q278 0 478.5 -128t290.5 -369.5t34 -582.5zM1667 1047q52 316 -55 481t-334 165q-247 0 -426.5 -182t-233.5 -515q-55 -317 56 -479 t336 -162q245 0 423.5 179.5t233.5 512.5zM1194 2246l288 455h393l-380 -455h-301z" />
<glyph unicode="&#xd4;" horiz-adv-x="2202" d="M2098 996q-55 -328 -216 -557t-391.5 -348t-496.5 -119q-279 0 -481 127t-291.5 367.5t-33.5 580.5q54 329 215 558.5t393 350t499 120.5q278 0 478.5 -128t290.5 -369.5t34 -582.5zM1667 1047q52 316 -55 481t-334 165q-247 0 -426.5 -182t-233.5 -515q-55 -317 56 -479 t336 -162q245 0 423.5 179.5t233.5 512.5zM1142.15 2232l240.792 244l160.208 -244h363l2.63574 14l-331.31 440h-317l-479.69 -440l-2.63574 -14h364z" />
<glyph unicode="&#xd5;" horiz-adv-x="2202" d="M2098 996q-55 -328 -216 -557t-391.5 -348t-496.5 -119q-279 0 -481 127t-291.5 367.5t-33.5 580.5q54 329 215 558.5t393 350t499 120.5q278 0 478.5 -128t290.5 -369.5t34 -582.5zM1667 1047q52 316 -55 481t-334 165q-247 0 -426.5 -182t-233.5 -515q-55 -317 56 -479 t336 -162q245 0 423.5 179.5t233.5 512.5zM1060 2250l-235 3q31 191 142 293.5t247 102.5q69 0 116.5 -22.5t83 -52.5t69.5 -52.5t77 -22.5q57 0 95 43.5t48 111.5l231 -7q-33 -190 -143.5 -291.5t-247.5 -103.5q-74 0 -120.5 22.5t-79 52.5t-64.5 52.5t-78 22.5 q-52 0 -90.5 -41t-50.5 -111z" />
<glyph unicode="&#xd6;" horiz-adv-x="2202" d="M2098 996q-55 -328 -216 -557t-391.5 -348t-496.5 -119q-279 0 -481 127t-291.5 367.5t-33.5 580.5q54 329 215 558.5t393 350t499 120.5q278 0 478.5 -128t290.5 -369.5t34 -582.5zM1667 1047q52 316 -55 481t-334 165q-247 0 -426.5 -182t-233.5 -515q-55 -317 56 -479 t336 -162q245 0 423.5 179.5t233.5 512.5zM1681 2258q-95 0 -154 67.5t-43 161.5q13 76 76 127t140 51q97 0 153 -67t40 -162q-10 -73 -72 -125.5t-140 -52.5zM1069 2258q-95 0 -153.5 68.5t-43.5 160.5q13 76 76 127t140 51q97 0 153 -67t40 -162q-10 -73 -72 -125.5 t-140 -52.5z" />
<glyph unicode="&#xd7;" horiz-adv-x="1894" d="M1302 90l-389 466l-544 -466l-219 263l542 466l-388 464l306 265l389 -466l543 466l220 -265l-543 -465l388 -465z" />
<glyph unicode="&#xd8;" horiz-adv-x="2203" d="M396 -98l-181 132l150 188q-123 138 -172.5 346t-4.5 477q54 329 215 558.5t393 350t499 120.5q260 0 453 -112l143 180l181 -132l-151 -190q123 -138 172 -347t5 -479q-55 -328 -216 -557t-391.5 -348t-496.5 -119q-262 0 -455 111zM643 573l849 1068q-89 50 -214 50 q-247 0 -426.5 -182t-233.5 -515q-23 -132 -15.5 -237.5t40.5 -183.5zM1667 1045q43 260 -26 423l-847 -1065q91 -50 216 -50q245 0 423.5 179.5t233.5 512.5z" />
<glyph unicode="&#xd9;" horiz-adv-x="2054" d="M1658 2048h430l-224 -1354q-38 -232 -174.5 -393.5t-342 -245.5t-452.5 -84q-248 0 -425.5 84t-259.5 245.5t-44 393.5l224 1354h433l-221 -1339q-27 -164 74.5 -258t281.5 -94t315.5 94t162.5 258zM1429 2246h-301l-230 455h394z" />
<glyph unicode="&#xda;" horiz-adv-x="2054" d="M1658 2048h430l-224 -1354q-38 -232 -174.5 -393.5t-342 -245.5t-452.5 -84q-248 0 -425.5 84t-259.5 245.5t-44 393.5l224 1354h433l-221 -1339q-27 -164 74.5 -258t281.5 -94t315.5 94t162.5 258zM1122 2246l288 455h393l-380 -455h-301z" />
<glyph unicode="&#xdb;" horiz-adv-x="2054" d="M1658 2048h430l-224 -1354q-38 -232 -174.5 -393.5t-342 -245.5t-452.5 -84q-248 0 -425.5 84t-259.5 245.5t-44 393.5l224 1354h433l-221 -1339q-27 -164 74.5 -258t281.5 -94t315.5 94t162.5 258zM1070.15 2232l240.792 244l160.208 -244h363l2.63574 14l-331.31 440 h-317l-479.69 -440l-2.63574 -14h364z" />
<glyph unicode="&#xdc;" horiz-adv-x="2054" d="M1658 2048h430l-224 -1354q-38 -232 -174.5 -393.5t-342 -245.5t-452.5 -84q-248 0 -425.5 84t-259.5 245.5t-44 393.5l224 1354h433l-221 -1339q-27 -164 74.5 -258t281.5 -94t315.5 94t162.5 258zM1609 2258q-95 0 -154 67.5t-43 161.5q13 76 76 127t140 51 q97 0 153 -67t40 -162q-10 -73 -72 -125.5t-140 -52.5zM997 2258q-95 0 -153.5 68.5t-43.5 160.5q13 76 76 127t140 51q97 0 153 -67t40 -162q-10 -73 -72 -125.5t-140 -52.5z" />
<glyph unicode="&#xdd;" horiz-adv-x="2040" d="M270 2048h485l321 -882h22l611 882h485l-966 -1324l-121 -724h-430l121 724zM1115 2246l288 455h393l-380 -455h-301z" />
<glyph unicode="&#xde;" horiz-adv-x="1889" d="M386 2048h433l-62 -376h300q247 0 404 -81.5t222.5 -223t34.5 -321.5q-29 -180 -141 -321t-296 -222t-431 -81h-301l-70 -422h-433zM604 754h302q184 0 281 85t118 203q19 120 -50 207.5t-253 87.5h-301z" />
<glyph unicode="&#xdf;" horiz-adv-x="1870" d="M50 0l250 1507q30 178 138.5 305.5t278.5 195.5t382 68q200 0 355 -62.5t234 -185.5t49 -306q-25 -162 -123 -273.5t-241 -150.5l-4 -22q197 -13 292.5 -154t59.5 -358q-31 -180 -136 -306t-264.5 -192t-354.5 -66h-269l57 347h202q136 0 229 71t110 187 q20 120 -56.5 192.5t-228.5 72.5h-159l53 332h106q110 0 187.5 76.5t95.5 180.5q20 113 -43 186.5t-195 73.5q-133 0 -226 -74.5t-113 -199.5l-240 -1445h-426z" />
<glyph unicode="&#xe0;" horiz-adv-x="1634" d="M476 -29q-219 0 -345 115.5t-89 342.5q29 171 126 269t236.5 144t293.5 60q202 20 292.5 42.5t103.5 95.5v6q15 95 -34.5 147t-157.5 52q-114 0 -193 -50t-114 -127l-388 32q78 210 273.5 333t472.5 123q170 0 309.5 -54t212.5 -168.5t43 -297.5l-173 -1036h-404l36 213 h-12q-73 -107 -196 -174.5t-293 -67.5zM647 265q140 0 243 81.5t124 202.5l26 163q-27 -17 -82 -29.5t-115.5 -22t-107.5 -17.5q-115 -16 -192.5 -63t-91.5 -137q-13 -87 41.5 -132.5t154.5 -45.5zM1150 1734h-301l-230 455h394z" />
<glyph unicode="&#xe1;" horiz-adv-x="1634" d="M476 -29q-219 0 -345 115.5t-89 342.5q29 171 126 269t236.5 144t293.5 60q202 20 292.5 42.5t103.5 95.5v6q15 95 -34.5 147t-157.5 52q-114 0 -193 -50t-114 -127l-388 32q78 210 273.5 333t472.5 123q170 0 309.5 -54t212.5 -168.5t43 -297.5l-173 -1036h-404l36 213 h-12q-73 -107 -196 -174.5t-293 -67.5zM647 265q140 0 243 81.5t124 202.5l26 163q-27 -17 -82 -29.5t-115.5 -22t-107.5 -17.5q-115 -16 -192.5 -63t-91.5 -137q-13 -87 41.5 -132.5t154.5 -45.5zM843 1734l288 455h393l-380 -455h-301z" />
<glyph unicode="&#xe2;" horiz-adv-x="1634" d="M476 -29q-219 0 -345 115.5t-89 342.5q29 171 126 269t236.5 144t293.5 60q202 20 292.5 42.5t103.5 95.5v6q15 95 -34.5 147t-157.5 52q-114 0 -193 -50t-114 -127l-388 32q78 210 273.5 333t472.5 123q170 0 309.5 -54t212.5 -168.5t43 -297.5l-173 -1036h-404l36 213 h-12q-73 -107 -196 -174.5t-293 -67.5zM647 265q140 0 243 81.5t124 202.5l26 163q-27 -17 -82 -29.5t-115.5 -22t-107.5 -17.5q-115 -16 -192.5 -63t-91.5 -137q-13 -87 41.5 -132.5t154.5 -45.5zM792.154 1720l240.792 244l160.208 -244h363l2.63574 14l-331.31 440h-317 l-479.69 -440l-2.63574 -14h364z" />
<glyph unicode="&#xe3;" horiz-adv-x="1634" d="M476 -29q-219 0 -345 115.5t-89 342.5q29 171 126 269t236.5 144t293.5 60q202 20 292.5 42.5t103.5 95.5v6q15 95 -34.5 147t-157.5 52q-114 0 -193 -50t-114 -127l-388 32q78 210 273.5 333t472.5 123q170 0 309.5 -54t212.5 -168.5t43 -297.5l-173 -1036h-404l36 213 h-12q-73 -107 -196 -174.5t-293 -67.5zM647 265q140 0 243 81.5t124 202.5l26 163q-27 -17 -82 -29.5t-115.5 -22t-107.5 -17.5q-115 -16 -192.5 -63t-91.5 -137q-13 -87 41.5 -132.5t154.5 -45.5zM709 1725l-235 3q31 191 142 293.5t247 102.5q69 0 116.5 -22.5t83 -52.5 t69.5 -52.5t77 -22.5q57 0 95 43.5t48 111.5l231 -7q-33 -190 -143.5 -291.5t-247.5 -103.5q-74 0 -120.5 22.5t-79 52.5t-64.5 52.5t-78 22.5q-52 0 -90.5 -41t-50.5 -111z" />
<glyph unicode="&#xe4;" horiz-adv-x="1634" d="M476 -29q-219 0 -345 115.5t-89 342.5q29 171 126 269t236.5 144t293.5 60q202 20 292.5 42.5t103.5 95.5v6q15 95 -34.5 147t-157.5 52q-114 0 -193 -50t-114 -127l-388 32q78 210 273.5 333t472.5 123q170 0 309.5 -54t212.5 -168.5t43 -297.5l-173 -1036h-404l36 213 h-12q-73 -107 -196 -174.5t-293 -67.5zM647 265q140 0 243 81.5t124 202.5l26 163q-27 -17 -82 -29.5t-115.5 -22t-107.5 -17.5q-115 -16 -192.5 -63t-91.5 -137q-13 -87 41.5 -132.5t154.5 -45.5zM1330 1746q-95 0 -154 67.5t-43 161.5q13 76 76 127t140 51q97 0 153 -67 t40 -162q-10 -73 -72 -125.5t-140 -52.5zM718 1746q-95 0 -153.5 68.5t-43.5 160.5q13 76 76 127t140 51q97 0 153 -67t40 -162q-10 -73 -72 -125.5t-140 -52.5z" />
<glyph unicode="&#xe5;" horiz-adv-x="1634" d="M476 -29q-219 0 -345 115.5t-89 342.5q29 171 126 269t236.5 144t293.5 60q202 20 292.5 42.5t103.5 95.5v6q15 95 -34.5 147t-157.5 52q-114 0 -193 -50t-114 -127l-388 32q78 210 273.5 333t472.5 123q170 0 309.5 -54t212.5 -168.5t43 -297.5l-173 -1036h-404l36 213 h-12q-73 -107 -196 -174.5t-293 -67.5zM647 265q140 0 243 81.5t124 202.5l26 163q-27 -17 -82 -29.5t-115.5 -22t-107.5 -17.5q-115 -16 -192.5 -63t-91.5 -137q-13 -87 41.5 -132.5t154.5 -45.5zM1006 1701q-142 0 -230.5 95.5t-73.5 232.5q10 91 64.5 166.5t137.5 121 t178 45.5t167 -45.5t109 -121t27 -166.5t-64.5 -165.5t-137 -118.5t-177.5 -44zM1029 1879q66 0 115 45.5t56 104.5q8 61 -32 107t-106 46q-68 0 -117 -46t-57 -107q-7 -59 33 -104.5t108 -45.5z" />
<glyph unicode="&#xe6;" horiz-adv-x="2573" d="M1654 -30q-188 0 -324 72.5t-189 208.5h-11q-54 -86 -153 -149t-222.5 -97t-254.5 -34q-238 0 -366.5 115.5t-91.5 342.5q29 171 126 269t236.5 144t293.5 60q204 20 293.5 42.5t102.5 95.5v6q15 95 -36.5 147t-159.5 52q-114 0 -191 -50t-112 -127l-388 32 q80 210 275 333t478 123q128 0 240.5 -44t162.5 -157q210 201 511 201q204 0 353 -86t216 -259.5t23 -434.5l-18 -117h-1047v-1q-28 -171 49.5 -270.5t236.5 -99.5q106 0 192 45t134 133l389 -26q-82 -214 -284.5 -342t-463.5 -128zM647 265q140 0 243 81.5t124 202.5 l26 163q-27 -17 -82 -29.5t-115.5 -22t-107.5 -17.5q-115 -16 -192.5 -63t-91.5 -137q-13 -87 41.5 -132.5t154.5 -45.5zM1445 923h644q22 137 -50 226t-210 89q-142 0 -249 -92.5t-135 -222.5z" />
<glyph unicode="&#xe7;" horiz-adv-x="1654" d="M732 -30q-236 0 -389 100.5t-213.5 279.5t-21.5 412q38 236 159.5 414.5t307.5 279t419 100.5q301 0 460.5 -161t127.5 -427h-401q2 114 -58.5 185t-176.5 71q-150 0 -260 -119t-145 -337q-37 -220 32.5 -340.5t218.5 -120.5q111 0 197 67t126 189h402 q-40 -176 -148 -310t-270 -208.5t-367 -74.5zM646 8h196l-32 -87q100 -16 156 -77.5t36 -165.5q-22 -149 -175.5 -237.5t-405.5 -88.5l30 190q125 0 201.5 30.5t89.5 94.5q12 62 -31.5 93.5t-145.5 44.5z" />
<glyph unicode="&#xe8;" horiz-adv-x="1685" d="M738 -30q-355 0 -523 213t-107 578q40 237 161.5 416t305.5 279t410 100q204 0 353 -86t216 -259.5t23 -434.5l-19 -117h-1046l-2 -11q-29 -181 48 -270.5t240 -89.5q107 0 192.5 45t132.5 133l389 -26q-82 -214 -284.5 -342t-489.5 -128zM560 923h639q23 137 -48 226 t-209 89q-92 0 -172 -43.5t-136 -115.5t-74 -156zM1157 1734h-301l-230 455h394z" />
<glyph unicode="&#xe9;" horiz-adv-x="1685" d="M738 -30q-355 0 -523 213t-107 578q40 237 161.5 416t305.5 279t410 100q204 0 353 -86t216 -259.5t23 -434.5l-19 -117h-1046l-2 -11q-29 -181 48 -270.5t240 -89.5q107 0 192.5 45t132.5 133l389 -26q-82 -214 -284.5 -342t-489.5 -128zM560 923h639q23 137 -48 226 t-209 89q-92 0 -172 -43.5t-136 -115.5t-74 -156zM850 1734l288 455h393l-380 -455h-301z" />
<glyph unicode="&#xea;" horiz-adv-x="1685" d="M738 -30q-355 0 -523 213t-107 578q40 237 161.5 416t305.5 279t410 100q204 0 353 -86t216 -259.5t23 -434.5l-19 -117h-1046l-2 -11q-29 -181 48 -270.5t240 -89.5q107 0 192.5 45t132.5 133l389 -26q-82 -214 -284.5 -342t-489.5 -128zM560 923h639q23 137 -48 226 t-209 89q-92 0 -172 -43.5t-136 -115.5t-74 -156zM798.154 1720l240.792 244l160.208 -244h363l2.63574 14l-331.31 440h-317l-479.69 -440l-2.63574 -14h364z" />
<glyph unicode="&#xeb;" horiz-adv-x="1685" d="M738 -30q-355 0 -523 213t-107 578q40 237 161.5 416t305.5 279t410 100q204 0 353 -86t216 -259.5t23 -434.5l-19 -117h-1046l-2 -11q-29 -181 48 -270.5t240 -89.5q107 0 192.5 45t132.5 133l389 -26q-82 -214 -284.5 -342t-489.5 -128zM560 923h639q23 137 -48 226 t-209 89q-92 0 -172 -43.5t-136 -115.5t-74 -156zM1336 1746q-95 0 -154 67.5t-43 161.5q13 76 76 127t140 51q97 0 153 -67t40 -162q-10 -73 -72 -125.5t-140 -52.5zM724 1746q-95 0 -153.5 68.5t-43.5 160.5q13 76 76 127t140 51q97 0 153 -67t40 -162q-10 -73 -72 -125.5 t-140 -52.5z" />
<glyph unicode="&#xec;" d="M42 0l256 1536h426l-256 -1536h-426zM699 1736h-301l-230 455h394z" />
<glyph unicode="&#xed;" d="M42 0l256 1536h426l-256 -1536h-426zM392 1736l288 455h393l-380 -455h-301z" />
<glyph unicode="&#xee;" d="M42 0l256 1536h426l-256 -1536h-426zM341.154 1722l240.792 244l160.208 -244h363l2.63574 14l-331.31 440h-317l-479.69 -440l-2.63574 -14h364z" />
<glyph unicode="&#xef;" d="M42 0l256 1536h426l-256 -1536h-426zM879 1748q-95 0 -154 67.5t-43 161.5q13 76 76 127t140 51q97 0 153 -67t40 -162q-10 -73 -72 -125.5t-140 -52.5zM267 1748q-95 0 -153.5 68.5t-43.5 160.5q13 76 76 127t140 51q97 0 153 -67t40 -162q-10 -73 -72 -125.5 t-140 -52.5z" />
<glyph unicode="&#xf0;" horiz-adv-x="1610" d="M1462 1878l-218 -102q149 -195 225.5 -452.5t24.5 -571.5q-40 -248 -155.5 -423.5t-287 -268t-379.5 -92.5q-211 0 -350.5 95t-197 261t-23.5 380q35 209 134 361.5t231.5 244t264.5 113.5q111 14 207.5 -12.5t147.5 -98.5h20q-36 88 -81 163.5t-110 146.5l-385 -180 l-78 215l276 130q-80 59 -186 123l231 266q80 -44 158.5 -99.5t150.5 -123.5l300 141zM744 300q143 0 240.5 102.5t131.5 302.5q32 202 -32 303.5t-207 101.5q-140 0 -237.5 -99t-129.5 -305q-33 -200 28 -303t206 -103z" />
<glyph unicode="&#xf1;" horiz-adv-x="1751" d="M618 888l-148 -888h-425l256 1536h405l-44 -271h17q73 135 206 213t305 78q239 0 359 -154.5t75 -423.5l-164 -978h-426l151 902q23 141 -35.5 220.5t-187.5 79.5q-130 0 -224 -82.5t-120 -231.5zM751 1725l-235 3q31 191 142 293.5t247 102.5q69 0 116.5 -22.5t83 -52.5 t69.5 -52.5t77 -22.5q57 0 95 43.5t48 111.5l231 -7q-33 -190 -143.5 -291.5t-247.5 -103.5q-74 0 -120.5 22.5t-79 52.5t-64.5 52.5t-78 22.5q-52 0 -90.5 -41t-50.5 -111z" />
<glyph unicode="&#xf2;" horiz-adv-x="1728" d="M738 -30q-235 0 -388.5 100.5t-216 280.5t-23.5 418q38 236 158 413t305 275.5t417 98.5q234 0 388 -100.5t216.5 -280.5t23.5 -419q-38 -235 -158.5 -412t-305 -275.5t-416.5 -98.5zM781 300q161 0 267.5 134t140.5 337q32 199 -26 329.5t-216 130.5q-162 0 -268.5 -135 t-139.5 -338q-32 -198 26.5 -328t215.5 -130zM1179 1734h-301l-230 455h394z" />
<glyph unicode="&#xf3;" horiz-adv-x="1728" d="M738 -30q-235 0 -388.5 100.5t-216 280.5t-23.5 418q38 236 158 413t305 275.5t417 98.5q234 0 388 -100.5t216.5 -280.5t23.5 -419q-38 -235 -158.5 -412t-305 -275.5t-416.5 -98.5zM781 300q161 0 267.5 134t140.5 337q32 199 -26 329.5t-216 130.5q-162 0 -268.5 -135 t-139.5 -338q-32 -198 26.5 -328t215.5 -130zM872 1734l288 455h393l-380 -455h-301z" />
<glyph unicode="&#xf4;" horiz-adv-x="1728" d="M738 -30q-235 0 -388.5 100.5t-216 280.5t-23.5 418q38 236 158 413t305 275.5t417 98.5q234 0 388 -100.5t216.5 -280.5t23.5 -419q-38 -235 -158.5 -412t-305 -275.5t-416.5 -98.5zM781 300q161 0 267.5 134t140.5 337q32 199 -26 329.5t-216 130.5q-162 0 -268.5 -135 t-139.5 -338q-32 -198 26.5 -328t215.5 -130zM821.154 1720l240.792 244l160.208 -244h363l2.63574 14l-331.31 440h-317l-479.69 -440l-2.63574 -14h364z" />
<glyph unicode="&#xf5;" horiz-adv-x="1658" d="M760 1725l-235 3q31 191 142 293.5t247 102.5q69 0 116.5 -22.5t83 -52.5t69.5 -52.5t77 -22.5q57 0 95 43.5t48 111.5l231 -7q-33 -190 -143.5 -291.5t-247.5 -103.5q-74 0 -120.5 22.5t-79 52.5t-64.5 52.5t-78 22.5q-52 0 -90.5 -41t-50.5 -111zM743 -30 q-235 0 -388.5 100.5t-216 280.5t-23.5 418q38 236 158 413t305 275.5t417 98.5q234 0 388 -100.5t216.5 -280.5t23.5 -419q-38 -235 -158.5 -412t-305 -275.5t-416.5 -98.5zM786 300q161 0 267.5 134t140.5 337q32 199 -26 329.5t-216 130.5q-162 0 -268.5 -135 t-139.5 -338q-32 -198 26.5 -328t215.5 -130z" />
<glyph unicode="&#xf6;" horiz-adv-x="1728" d="M738 -30q-235 0 -388.5 100.5t-216 280.5t-23.5 418q38 236 158 413t305 275.5t417 98.5q234 0 388 -100.5t216.5 -280.5t23.5 -419q-38 -235 -158.5 -412t-305 -275.5t-416.5 -98.5zM781 300q161 0 267.5 134t140.5 337q32 199 -26 329.5t-216 130.5q-162 0 -268.5 -135 t-139.5 -338q-32 -198 26.5 -328t215.5 -130zM1359 1746q-95 0 -154 67.5t-43 161.5q13 76 76 127t140 51q97 0 153 -67t40 -162q-10 -73 -72 -125.5t-140 -52.5zM747 1746q-95 0 -153.5 68.5t-43.5 160.5q13 76 76 127t140 51q97 0 153 -67t40 -162q-10 -73 -72 -125.5 t-140 -52.5z" />
<glyph unicode="&#xf7;" horiz-adv-x="1894" d="M1683 989l-55 -339h-1400l55 339h1400zM846 22q-109 0 -174 79.5t-46 188.5q15 90 89 151.5t166 61.5q107 0 171 -77.5t45 -186.5q-14 -91 -87.5 -154t-163.5 -63zM1033 1135q-110 0 -176 79.5t-48 188.5q16 89 90 151t166 62q107 0 169.5 -77.5t46.5 -186.5 q-14 -91 -86.5 -154t-161.5 -63z" />
<glyph unicode="&#xf8;" horiz-adv-x="1733" d="M266 -98l-174 132l130 152q-172 218 -112 583q38 236 158 413t305 275.5t417 98.5q200 0 346 -77l123 143l173 -132l-128 -149q174 -218 114 -585q-38 -235 -158.5 -412t-305 -275.5t-416.5 -98.5q-201 0 -347 77zM532 545l556 646q-58 40 -141 40q-162 0 -268.5 -135 t-139.5 -338q-19 -119 -7 -213zM781 300q161 0 267.5 134t140.5 337q19 118 7 212l-554 -644q57 -39 139 -39z" />
<glyph unicode="&#xf9;" horiz-adv-x="1751" d="M1136 654l147 882h426l-256 -1536h-409l46 279h-16q-71 -135 -207 -217t-309 -82q-232 0 -349.5 154.5t-74.5 423.5l164 978h426l-150 -902q-22 -136 37.5 -215t180.5 -79q115 0 217 80t127 234zM1191 1734h-301l-230 455h394z" />
<glyph unicode="&#xfa;" horiz-adv-x="1751" d="M1136 654l147 882h426l-256 -1536h-409l46 279h-16q-71 -135 -207 -217t-309 -82q-232 0 -349.5 154.5t-74.5 423.5l164 978h426l-150 -902q-22 -136 37.5 -215t180.5 -79q115 0 217 80t127 234zM884 1734l288 455h393l-380 -455h-301z" />
<glyph unicode="&#xfb;" horiz-adv-x="1751" d="M1136 654l147 882h426l-256 -1536h-409l46 279h-16q-71 -135 -207 -217t-309 -82q-232 0 -349.5 154.5t-74.5 423.5l164 978h426l-150 -902q-22 -136 37.5 -215t180.5 -79q115 0 217 80t127 234zM833.154 1720l240.792 244l160.208 -244h363l2.63574 14l-331.31 440h-317 l-479.69 -440l-2.63574 -14h364z" />
<glyph unicode="&#xfc;" horiz-adv-x="1751" d="M1136 654l147 882h426l-256 -1536h-409l46 279h-16q-71 -135 -207 -217t-309 -82q-232 0 -349.5 154.5t-74.5 423.5l164 978h426l-150 -902q-22 -136 37.5 -215t180.5 -79q115 0 217 80t127 234zM1371 1746q-95 0 -154 67.5t-43 161.5q13 76 76 127t140 51q97 0 153 -67 t40 -162q-10 -73 -72 -125.5t-140 -52.5zM759 1746q-95 0 -153.5 68.5t-43.5 160.5q13 76 76 127t140 51q97 0 153 -67t40 -162q-10 -73 -72 -125.5t-140 -52.5z" />
<glyph unicode="&#xfd;" horiz-adv-x="1650" d="M191 -598q-88 0 -151 15.5t-96 31.5l150 330q107 -34 185.5 -17.5t141.5 120.5l43 77l-288 1577h445l131 -1128h16l508 1128h454l-884 -1712q-96 -184 -258.5 -303t-396.5 -119zM827 1734l288 455h393l-380 -455h-301z" />
<glyph unicode="&#xfe;" horiz-adv-x="1726" d="M382 2048h426l-113 -689h16q53 80 156 138.5t255 58.5q167 0 294 -87.5t184 -263t13 -439.5q-42 -258 -155 -434t-270 -266.5t-330 -90.5q-146 0 -230.5 55.5t-113.5 138.5h-18l-124 -745h-426zM1209 768q34 207 -29.5 328t-233.5 121q-175 0 -267.5 -129.5 t-124.5 -319.5q-20 -125 -7 -228t72.5 -164.5t177.5 -61.5q168 0 273 123t139 331z" />
<glyph unicode="&#xff;" horiz-adv-x="1650" d="M191 -598q-88 0 -151 15.5t-96 31.5l150 330q107 -34 185.5 -17.5t141.5 120.5l43 77l-288 1577h445l131 -1128h16l508 1128h454l-884 -1712q-96 -184 -258.5 -303t-396.5 -119zM1314 1746q-95 0 -154 67.5t-43 161.5q13 76 76 127t140 51q97 0 153 -67t40 -162 q-10 -73 -72 -125.5t-140 -52.5zM702 1746q-95 0 -153.5 68.5t-43.5 160.5q13 76 76 127t140 51q97 0 153 -67t40 -162q-10 -73 -72 -125.5t-140 -52.5z" />
<glyph unicode="&#x131;" d="M42 0l256 1536h426l-256 -1536h-426z" />
<glyph unicode="&#x152;" horiz-adv-x="2869" d="M945 0q-266 0 -457 117.5t-274.5 345.5t-29.5 559q55 333 214 562t389.5 346.5t497.5 117.5h1627l-60 -357h-947l-80 -488h876l-60 -357h-876l-80 -489h951l-60 -357h-1631zM1251 357l222 1334h-248q-219 0 -384 -161t-223 -508q-57 -348 56 -506.5t332 -158.5h245z" />
<glyph unicode="&#x153;" horiz-adv-x="2747" d="M738 -30q-235 0 -388.5 100.5t-216 280.5t-23.5 418q38 236 158 413t305 275.5t417 98.5q234 0 388 -100.5t216.5 -280.5t23.5 -419q-38 -235 -158.5 -412t-305 -275.5t-416.5 -98.5zM781 300q161 0 267.5 134t140.5 337q32 199 -26 329.5t-216 130.5q-162 0 -268.5 -135 t-139.5 -338q-32 -198 26.5 -328t215.5 -130zM1836 -30q-355 0 -523 213t-107 578q40 237 161.5 416t305.5 279t410 100q204 0 353 -86t216 -259.5t23 -434.5l-19 -117h-1046l-2 -11q-29 -181 48 -270.5t240 -89.5q107 0 192.5 45t132.5 133l389 -26q-82 -214 -284.5 -342 t-489.5 -128zM1658 923h639q23 137 -48 226t-209 89q-92 0 -172 -43.5t-136 -115.5t-74 -156z" />
<glyph unicode="&#x178;" horiz-adv-x="2040" d="M270 2048h485l321 -882h22l611 882h485l-966 -1324l-121 -724h-430l121 724zM1602 2258q-95 0 -154 67.5t-43 161.5q13 76 76 127t140 51q97 0 153 -67t40 -162q-10 -73 -72 -125.5t-140 -52.5zM990 2258q-95 0 -153.5 68.5t-43.5 160.5q13 76 76 127t140 51 q97 0 153 -67t40 -162q-10 -73 -72 -125.5t-140 -52.5z" />
<glyph unicode="&#x189;" horiz-adv-x="2048" d="M-57 954l44 251h997l-44 -251h-997zM786 0h-736l340 2048h722q309 0 514 -126.5t288.5 -360.5t29.5 -559q-52 -314 -207 -538.5t-397 -344t-554 -119.5zM545 371h266q290 0 471 164t239 514q56 334 -65 481t-409 147h-286z" />
<glyph unicode="&#x237;" d="M298 1536h426l-267 -1607q-43 -267 -220 -387t-451 -113q-18 0 -36.5 0.5t-43.5 1.5l56 333q15 -1 28.5 -1.5t27.5 -0.5q102 0 151 44t65 130z" />
<glyph unicode="&#x2c6;" horiz-adv-x="1578" d="M746.154 1720l240.792 244l160.208 -244h363l2.63574 14l-331.31 440h-317l-479.69 -440l-2.63574 -14h364z" />
<glyph unicode="&#x2c7;" horiz-adv-x="1578" d="M820 2174l160 -244l241 244h363l-2 -14l-477 -440h-317l-334 440l2 14h364z" />
<glyph unicode="&#x2d9;" horiz-adv-x="821" d="M581 1734q-95 0 -156 64t-50 152q11 89 86 152t169 63q95 0 155.5 -63t50.5 -152q-10 -88 -85 -152t-170 -64z" />
<glyph unicode="&#x2da;" horiz-adv-x="1082" d="M710 1701q-142 0 -230.5 95.5t-73.5 232.5q10 91 64.5 166.5t137.5 121t178 45.5t167 -45.5t109 -121t27 -166.5t-64.5 -165.5t-137 -118.5t-177.5 -44zM733 1879q66 0 115 45.5t56 104.5q8 61 -32 107t-106 46q-68 0 -117 -46t-57 -107q-7 -59 33 -104.5t108 -45.5z" />
<glyph unicode="&#x2dc;" horiz-adv-x="1408" d="M576 1725l-235 3q31 191 142 293.5t247 102.5q69 0 116.5 -22.5t83 -52.5t69.5 -52.5t77 -22.5q57 0 95 43.5t48 111.5l231 -7q-33 -190 -143.5 -291.5t-247.5 -103.5q-74 0 -120.5 22.5t-79 52.5t-64.5 52.5t-78 22.5q-52 0 -90.5 -41t-50.5 -111z" />
<glyph unicode="&#x2000;" horiz-adv-x="1388" />
<glyph unicode="&#x2001;" horiz-adv-x="2777" />
<glyph unicode="&#x2002;" horiz-adv-x="1388" />
<glyph unicode="&#x2003;" horiz-adv-x="2777" />
<glyph unicode="&#x2004;" horiz-adv-x="925" />
<glyph unicode="&#x2005;" horiz-adv-x="694" />
<glyph unicode="&#x2006;" horiz-adv-x="462" />
<glyph unicode="&#x2007;" horiz-adv-x="462" />
<glyph unicode="&#x2008;" horiz-adv-x="347" />
<glyph unicode="&#x2009;" horiz-adv-x="555" />
<glyph unicode="&#x200a;" horiz-adv-x="154" />
<glyph unicode="&#x2010;" horiz-adv-x="1320" d="M1167 1010l-55 -338h-935l55 338h935z" />
<glyph unicode="&#x2011;" horiz-adv-x="1320" d="M1167 1010l-55 -338h-935l55 338h935z" />
<glyph unicode="&#x2012;" horiz-adv-x="1320" d="M1167 1010l-55 -338h-935l55 338h935z" />
<glyph unicode="&#x2013;" horiz-adv-x="1408" d="M1448 1010l-56 -338h-1408l56 338h1408z" />
<glyph unicode="&#x2014;" horiz-adv-x="2816" d="M2856 1010l-56 -338h-2816l56 338h2816z" />
<glyph unicode="&#x2018;" horiz-adv-x="682" d="M259 1408l37 216q16 92 67.5 188.5t125 181.5t153.5 141l168 -111q-70 -88 -122 -184t-72 -214l-37 -218h-320z" />
<glyph unicode="&#x2019;" horiz-adv-x="682" d="M739 2048l-35 -216q-15 -91 -66.5 -187t-124.5 -180.5t-152 -143.5l-172 111q63 80 117 175.5t76 222.5l37 218h320z" />
<glyph unicode="&#x201a;" horiz-adv-x="682" d="M443 256l-35 -216q-15 -91 -66.5 -187t-124.5 -180.5t-152 -143.5l-172 111q63 80 117 175.5t76 222.5l37 218h320z" />
<glyph unicode="&#x201c;" horiz-adv-x="1187" d="M259 1408l37 216q16 92 67.5 188.5t125 181.5t153.5 141l168 -111q-70 -88 -122 -184t-72 -214l-37 -218h-320zM764 1408l37 216q16 92 67.5 188.5t125 181.5t153.5 141l168 -111q-70 -88 -122 -184t-72 -214l-37 -218h-320z" />
<glyph unicode="&#x201d;" horiz-adv-x="1185" d="M739 2048l-35 -216q-15 -91 -66.5 -187t-124.5 -180.5t-152 -143.5l-172 111q63 80 117 175.5t76 222.5l37 218h320zM1241 2048l-35 -216q-15 -91 -66.5 -187t-124.5 -180.5t-152 -143.5l-172 111q63 80 117 175.5t76 222.5l37 218h320z" />
<glyph unicode="&#x201e;" horiz-adv-x="1185" d="M438 256l-35 -216q-15 -91 -66.5 -187t-124.5 -180.5t-152 -143.5l-172 111q63 80 117 175.5t76 222.5l37 218h320zM940 256l-35 -216q-15 -91 -66.5 -187t-124.5 -180.5t-152 -143.5l-172 111q63 80 117 175.5t76 222.5l37 218h320z" />
<glyph unicode="&#x2022;" horiz-adv-x="1280" d="M579 376q-122 0 -213 60t-134 161.5t-23 224.5q20 121 94.5 219.5t182.5 156.5t228 58q123 0 214.5 -60.5t135 -161.5t23.5 -224q-19 -121 -94.5 -219.5t-184 -156.5t-229.5 -58z" />
<glyph unicode="&#x2026;" horiz-adv-x="2250" d="M320 -26q-101 0 -165.5 70t-58.5 170q7 99 83.5 167.5t176.5 68.5q96 0 162 -69t58 -167q-7 -100 -84.5 -170t-171.5 -70zM1025 -26q-101 0 -165.5 70t-58.5 170q7 99 83.5 167.5t176.5 68.5q96 0 162 -69t58 -167q-7 -100 -84.5 -170t-171.5 -70zM1731 -26 q-101 0 -165.5 70t-58.5 170q7 99 83.5 167.5t176.5 68.5q96 0 162 -69t58 -167q-7 -100 -84.5 -170t-171.5 -70z" />
<glyph unicode="&#x202f;" horiz-adv-x="555" />
<glyph unicode="&#x2039;" horiz-adv-x="1104" d="M862 220h-386l-304 600l2 8h-2l4 20l504 600h386l-482 -612z" />
<glyph unicode="&#x203a;" horiz-adv-x="1104" d="M50 220l482 612l-278 616h386l304 -600l-2 -8h2l-4 -20l-504 -600h-386z" />
<glyph unicode="&#x2044;" horiz-adv-x="792" d="M-455 0l1525 2048h264l-1526 -2048h-263z" />
<glyph unicode="&#x205f;" horiz-adv-x="694" />
<glyph unicode="&#x20ac;" horiz-adv-x="1932" d="M1613 1343l-134 -219h-644q-11 -49 -20 -102q-8 -51 -13 -98h549l-143 -224h-407q20 -178 115.5 -260t247.5 -82q132 0 236 48.5t165 88.5l105 -342q-124 -90 -269.5 -135.5t-300.5 -45.5q-324 0 -522 190t-217 538h-290l116 224h181q5 48 13 98q9 52 20 102h-259 l116 219h208q134 349 396 541t586 192q161 0 290.5 -48t224.5 -138l-217 -342q-52 42 -140 92t-220 50q-152 0 -275 -84t-203 -263h705z" />
<glyph unicode="&#x2122;" horiz-adv-x="1808" d="M1315 1312l-97 416l-69 -416h-185l122 736h220l103 -486l262 486h221l-122 -736h-186l69 414l-234 -414h-104zM426 1312l96 583h-223l25 153h634l-26 -153h-225l-95 -583h-186z" />
<glyph unicode="&#x25fc;" horiz-adv-x="1535" d="M0 1535h1535v-1535h-1535v1535z" />
<glyph horiz-adv-x="1070" d="M-25 0l35 200l500 343q78 56 136.5 103t68.5 105q11 62 -34.5 96.5t-125.5 34.5q-73 0 -131.5 -35t-73.5 -111h-269q26 164 165 266t339 102q202 0 303 -104t80 -250q-15 -104 -94.5 -200t-277.5 -204l-182 -108l-2 -10h481l-35 -228h-883z" />
<glyph horiz-adv-x="1162" d="M-25 174l35 222l627 692h351l-114 -688h154l-31 -226h-160l-29 -174h-269l30 174h-594zM612 400l65 390h-6l-377 -381v-9h318z" />
<glyph horiz-adv-x="808" d="M844 2112l-180 -1088h-276l131 750h-12q-24 -27 -89.5 -45t-172.5 -17l31 221q126 -4 207 59t95 120h266z" />
<glyph horiz-adv-x="1124" d="M612 1008q-136 0 -240 40.5t-157.5 115t-38.5 176.5h280q-4 -49 44.5 -74.5t120.5 -25.5q87 0 153 36t76 94q17 103 -187 103h-136l29 208h126q80 0 141.5 35.5t73.5 96.5q18 93 -130 93q-73 0 -140 -27.5t-78 -74.5h-267q17 95 88.5 168t178 114.5t227.5 41.5 q136 0 227.5 -47.5t133 -123t27.5 -159.5q-15 -95 -89 -145.5t-175 -62.5v-8q129 -14 188.5 -88t43.5 -176q-23 -138 -168 -224t-352 -86z" />
<glyph horiz-adv-x="1506" d="M1324 2222q-95 0 -154 67.5t-43 161.5q13 76 76 127t140 51q97 0 153 -67t40 -162q-10 -73 -72 -125.5t-140 -52.5zM712 2222q-95 0 -153.5 68.5t-43.5 160.5q13 76 76 127t140 51q97 0 153 -67t40 -162q-10 -73 -72 -125.5t-140 -52.5z" />
<glyph horiz-adv-x="1355" d="M636 2250l-235 3q31 191 142 293.5t247 102.5q69 0 116.5 -22.5t83 -52.5t69.5 -52.5t77 -22.5q57 0 95 43.5t48 111.5l231 -7q-33 -190 -143.5 -291.5t-247.5 -103.5q-74 0 -120.5 22.5t-79 52.5t-64.5 52.5t-78 22.5q-52 0 -90.5 -41t-50.5 -111z" />
<glyph horiz-adv-x="1082" d="M772 2158q-133 0 -213 91t-60 218q14 86 69 156.5t135 112t169 41.5q136 0 218.5 -90.5t58.5 -219.5q-25 -130 -131 -219.5t-246 -89.5zM801 2331q57 0 107.5 40.5t57.5 95.5q8 59 -26.5 97.5t-96.5 38.5q-56 0 -103.5 -40t-57.5 -96t24.5 -96t94.5 -40z" />
</font>
</defs>
</svg>
