<?xml version="1.0" standalone="no"?>
<!DOCTYPE svg PUBLIC "-//W3C//DTD SVG 1.1//EN" "http://www.w3.org/Graphics/SVG/1.1/DTD/svg11.dtd" >
<svg xmlns="http://www.w3.org/2000/svg" xmlns:xlink="http://www.w3.org/1999/xlink" version="1.1">
<metadata></metadata>
<defs>
<font id="interbold" horiz-adv-x="766" >
<font-face units-per-em="2816" ascent="2252" descent="-564" />
<missing-glyph horiz-adv-x="653" />
<glyph horiz-adv-x="0" />
<glyph horiz-adv-x="938" />
<glyph horiz-adv-x="0" />
<glyph unicode="&#x9;" horiz-adv-x="816" />
<glyph unicode=" "  horiz-adv-x="653" />
<glyph unicode="&#x09;" horiz-adv-x="653" />
<glyph unicode="&#xa0;" horiz-adv-x="653" />
<glyph unicode="!" horiz-adv-x="914" d="M679 2048l-39 -1434h-366l-40 1434h445zM457 -26q-99 0 -170 70t-70 170q-1 98 70 168t170 70q96 0 167.5 -70t72.5 -168q-1 -100 -72.5 -170t-167.5 -70z" />
<glyph unicode="&#x22;" horiz-adv-x="1105" d="M444 2048v-778h-304v778h304zM961 2048v-778h-304v778h304z" />
<glyph unicode="#" horiz-adv-x="1829" d="M946 0l83 508h-400l-83 -508h-320l83 508h-280l53 320h280l64 392h-280l54 320h279l83 508h320l-83 -508h400l83 508h320l-83 -508h281l-54 -320h-280l-64 -392h280l-53 -320h-280l-83 -508h-320zM682 828h400l64 392h-400z" />
<glyph unicode="$" horiz-adv-x="1844" d="M809 -256l2 232q-318 27 -504.5 195.5t-194.5 471.5h419q9 -125 85.5 -200t198.5 -98l5 529l-96 24q-259 62 -409 197t-149 361q-1 170 84 302t235 213t346 100l2 233h236l-2 -235q289 -31 461 -196.5t176 -413.5h-415q-19 193 -226 242l-4 -500l59 -14 q178 -40 316.5 -116t218 -195.5t79.5 -290.5q-1 -260 -180.5 -422.5t-504.5 -187.5l-2 -231h-236zM1051 345q113 23 178 86.5t66 154.5q-1 85 -62.5 137.5t-177.5 88.5zM823 1262l4 442q-105 -22 -161 -80.5t-56 -138.5q-2 -86 59 -138.5t154 -84.5z" />
<glyph unicode="%" horiz-adv-x="2420" d="M1287 384v108q1 123 53 226.5t153 166t245 62.5q147 0 247.5 -62t152.5 -165.5t51 -227.5v-108q1 -123 -51.5 -226.5t-153.5 -166t-246 -62.5q-146 0 -246.5 62.5t-152 166t-52.5 226.5zM236 1556v108q1 124 53.5 227.5t153 165.5t243.5 62q148 0 248.5 -62t152.5 -165.5 t51 -227.5v-108q1 -124 -51.5 -227t-153.5 -164.5t-247 -61.5t-246 62t-151.5 165t-52.5 226zM334 0l1408 2048h261l-1408 -2048h-261zM1578 492v-108q1 -71 35 -134t125 -63q92 0 125.5 62t32.5 135v108q1 74 -31 136.5t-127 62.5q-90 0 -124.5 -62.5t-35.5 -136.5z M529 1664v-108q1 -73 35 -135t122 -62q92 0 126 62t33 135v108q1 74 -31.5 136.5t-127.5 62.5q-89 0 -122.5 -64t-34.5 -135z" />
<glyph unicode="&#x26;" horiz-adv-x="1898" d="M798 -30q-213 0 -366.5 76t-236 206.5t-82.5 291.5q0 178 103 299t270 236q-80 102 -137.5 218t-57.5 252q0 149 70 268t195.5 188.5t293.5 69.5q165 0 284 -66t183.5 -176t64.5 -241q0 -145 -71.5 -262.5t-200.5 -210.5l-120 -86l338 -388q40 76 63.5 165t23.5 189h353 q0 -208 -50.5 -370t-135.5 -276l308 -353h-444l-124 138q-113 -88 -251.5 -128t-272.5 -40zM1092 394l-388 432l-12 -8q-85 -61 -125.5 -126t-40.5 -124q0 -109 80 -182.5t213 -73.5q140 0 273 82zM785 1276l107 70q149 95 149 222q0 61 -49 113t-139 51q-89 -1 -143 -57 t-54 -133q0 -64 36 -129t93 -137z" />
<glyph unicode="'" horiz-adv-x="588" d="M444 2048v-778h-304v778h304z" />
<glyph unicode="(" horiz-adv-x="1152" d="M264 821q0 738 404 1265h407q-104 -132 -187.5 -338.5t-132 -448t-48.5 -478.5t48.5 -478.5t132 -448.5t187.5 -339h-407q-404 527 -404 1266z" />
<glyph unicode=")" horiz-adv-x="1152" d="M888 821q0 -738 -404 -1265h-407q104 132 187.5 338.5t132 448t48.5 478.5t-48.5 478.5t-132 448.5t-187.5 339h407q404 -527 404 -1266z" />
<glyph unicode="*" horiz-adv-x="1590" d="M661 896l25 387l-324 -217l-134 236l349 170l-349 170l134 236l324 -217l-25 387h269l-26 -387l324 217l134 -236l-348 -170l348 -170l-134 -236l-324 217l26 -387h-269z" />
<glyph unicode="+" horiz-adv-x="1894" d="M768 121v521h-521v358h521v521h358v-521h521v-358h-521v-521h-358z" />
<glyph unicode="," horiz-adv-x="853" d="M633 280l-11 -110q-13 -132 -49.5 -263.5t-76 -238.5t-63.5 -168h-276q15 59 41 164t49 236.5t29 267.5l5 112h352z" />
<glyph unicode="-" horiz-adv-x="1320" d="M1127 1010v-338h-934v338h934z" />
<glyph unicode="." horiz-adv-x="838" d="M419 -26q-99 0 -170 70t-70 170q-1 98 70 168t170 70q96 0 167.5 -70t72.5 -168q-1 -100 -72.5 -170t-167.5 -70z" />
<glyph unicode="/" horiz-adv-x="1098" d="M1062 2144l-660 -2452h-367l660 2452h367z" />
<glyph unicode="0" horiz-adv-x="1938" d="M969 -45q-258 1 -443.5 127t-285 365t-98.5 575q1 503 221.5 778.5t605.5 275.5q257 0 442.5 -124t285.5 -359.5t99 -570.5q-1 -506 -221 -786.5t-606 -280.5zM969 314q176 0 281 177t104 531q0 349 -105 524t-280 175t-280 -175t-106 -524q-1 -354 104.5 -531 t281.5 -177z" />
<glyph unicode="1" horiz-adv-x="1335" d="M1014 2048v-2048h-432v1518h-19q-33 -51 -140 -101.5t-277 -50.5v344q132 0 231 58.5t155 138t58 141.5h424z" />
<glyph unicode="2" horiz-adv-x="1774" d="M166 0v312l729 675q140 134 213 233t73 221q0 135 -89.5 213.5t-224.5 78.5q-140 0 -225.5 -84.5t-84.5 -231.5h-411q0 201 91 349t254.5 229t378.5 81q220 0 383.5 -77.5t254.5 -214t91 -314.5q0 -116 -46 -229t-161.5 -250.5t-326.5 -329.5l-299 -293v-14h860v-354 h-1460z" />
<glyph unicode="3" horiz-adv-x="1857" d="M923 -28q-225 0 -399 77t-274 214t-104 316h436q6 -112 102.5 -181t239.5 -69q149 0 243.5 76.5t93.5 198.5q1 124 -100.5 202.5t-275.5 78.5h-191v318h191q148 0 241 74.5t92 195.5q1 116 -79.5 188t-211.5 72q-133 0 -227 -70t-98 -187h-415q3 177 101 312.5 t264.5 211.5t376.5 76q212 0 371 -77t247.5 -207.5t87.5 -292.5q1 -172 -106.5 -287t-279.5 -146v-16q226 -28 344.5 -156t117.5 -319q1 -175 -100.5 -311t-279.5 -214t-408 -78z" />
<glyph unicode="4" horiz-adv-x="1909" d="M135 360v341l855 1347h542v-1341h254v-347h-254v-360h-414v360h-983zM1126 707v869h-16l-539 -853v-16h555z" />
<glyph unicode="5" horiz-adv-x="1815" d="M914 -28q-212 0 -378 78t-262.5 215t-100.5 314h420q8 -119 100 -193t221 -74q152 0 250 100t98 260q0 161 -99.5 262.5t-254.5 102.5q-91 0 -175 -37t-131 -101l-385 69l97 1080h1252v-354h-895l-53 -513h12q54 76 163 126t244 50q185 0 330 -87t229 -239t83 -348 q1 -207 -95.5 -367.5t-269 -252t-400.5 -91.5z" />
<glyph unicode="6" horiz-adv-x="1859" d="M952 -28q-158 1 -304 53.5t-262 169t-183.5 309.5t-68.5 474q1 347 104 594t289.5 378.5t439.5 131.5q205 0 361.5 -80t252.5 -217t116 -309h-427q-25 113 -105 174t-198 61q-200 0 -303.5 -174.5t-105.5 -478.5h14q69 136 208 212.5t308 76.5q182 0 324.5 -85.5 t224.5 -234.5t81 -341q1 -208 -96 -370t-269.5 -253.5t-400.5 -90.5zM950 312q150 0 249.5 104t98.5 258q1 152 -97 256t-248 104q-99 0 -178.5 -49t-125.5 -130.5t-47 -181.5q0 -100 45.5 -182t124 -130.5t178.5 -48.5z" />
<glyph unicode="7" horiz-adv-x="1675" d="M247 0l849 1680v14h-989v354h1437v-359l-850 -1689h-447z" />
<glyph unicode="8" horiz-adv-x="1861" d="M930 -28q-231 0 -410.5 75.5t-281.5 206.5t-102 297q0 128 58.5 235.5t159.5 179t226 91.5v14q-163 33 -266 159.5t-102 294.5q0 159 93 283.5t255.5 196t369.5 71.5t369.5 -71.5t256 -196t93.5 -283.5q-1 -169 -104 -295t-264 -159v-14q123 -20 223.5 -91.5t160.5 -179 t60 -235.5q0 -166 -102.5 -297t-282 -206.5t-410.5 -75.5zM930 290q154 0 249 82.5t95 212.5q0 133 -97.5 219t-246.5 86t-246.5 -86t-97.5 -219q0 -130 95 -212.5t249 -82.5zM930 1205q129 0 212.5 77t83.5 198q0 119 -82.5 194.5t-213.5 75.5t-213.5 -75t-82.5 -195 q0 -121 83 -198t213 -77z" />
<glyph unicode="9" horiz-adv-x="1859" d="M907 2082q158 0 304.5 -52.5t262 -169.5t183.5 -309.5t68 -473.5q0 -347 -103 -594.5t-289.5 -379t-440.5 -131.5q-205 0 -362 79.5t-252.5 217t-115.5 309.5h427q25 -112 105 -173.5t198 -61.5q200 0 304 174.5t105 478.5h-14q-68 -135 -207.5 -212t-308.5 -77 q-181 0 -324 85.5t-224.5 234.5t-80.5 341q-1 208 95 369.5t268.5 253.5t401.5 91zM910 1742q-151 0 -250 -104t-98 -258q-1 -152 96.5 -255.5t247.5 -103.5q99 0 178.5 49t126 131t47.5 181q-1 99 -46.5 180.5t-123.5 130.5t-178 49z" />
<glyph unicode=":" horiz-adv-x="838" d="M419 -26q-99 0 -170 70t-70 170q-1 98 70 168t170 70q96 0 167.5 -70t72.5 -168q-1 -100 -72.5 -170t-167.5 -70zM419 1049q-99 0 -170 70t-70 170q-1 98 70 168t170 70q96 0 167.5 -70t72.5 -168q-1 -100 -72.5 -170t-167.5 -70z" />
<glyph unicode=";" horiz-adv-x="848" d="M633 280l-11 -110q-13 -132 -49.5 -263.5t-76 -238.5t-63.5 -168h-276q15 59 41 164t49 236.5t29 267.5l5 112h352zM455 1049q-99 0 -170 70t-70 170q-1 98 70 168t170 70q96 0 167.5 -70t72.5 -168q-1 -100 -72.5 -170t-167.5 -70z" />
<glyph unicode="&#x3c;" horiz-adv-x="1894" d="M243 643v352l1408 620v-405l-951 -382v-18l951 -382v-405z" />
<glyph unicode="=" horiz-adv-x="1894" d="M273 310v355h1349v-355h-1349zM273 974v355h1349v-355h-1349z" />
<glyph unicode="&#x3e;" horiz-adv-x="1894" d="M1651 643l-1408 -620v405l951 382v18l-951 382v405l1408 -620v-352z" />
<glyph unicode="?" horiz-adv-x="1584" d="M536 614v34q1 175 31.5 279t89 167.5t142.5 116.5q92 59 155 128.5t63 167.5q0 104 -71.5 166.5t-172.5 62.5q-98 0 -175.5 -64t-82.5 -186h-408q5 200 96 331t241 195t331 64q199 0 352 -65.5t240 -189.5t87 -299q0 -176 -84.5 -293t-224.5 -200q-118 -71 -173 -153 t-57 -228v-34h-379zM733 -26q-99 0 -170 70t-70 170q-1 98 70 168t170 70q96 0 167.5 -70t72.5 -168q-1 -100 -72.5 -170t-167.5 -70z" />
<glyph unicode="@" horiz-adv-x="2902" d="M1524 2039q398 0 681 -152.5t433.5 -423.5t149.5 -627q1 -245 -58.5 -435.5t-190.5 -303t-347 -124.5q-174 -13 -251.5 49.5t-94.5 165.5h-12q-23 -61 -93.5 -109t-170.5 -74t-214 -20q-158 9 -291 92t-213.5 242.5t-81.5 394.5q1 232 84.5 385t211.5 235.5t261 101.5 q113 17 214 -0.5t170.5 -55t86.5 -81.5h14v112h313v-976q2 -145 112 -145q104 0 157 138t52 431q0 236 -76 399.5t-207 265t-297.5 147.5t-346.5 46q-332 0 -552.5 -131.5t-330 -358.5t-110.5 -513q2 -474 260.5 -726t747.5 -252q173 0 330 34.5t237 67.5l99 -290 q-62 -35 -170 -67t-242 -51.5t-277 -19.5q-425 0 -725 153t-457.5 442t-158.5 697q1 402 160 703t461.5 467.5t732.5 166.5zM1463 1103q-166 0 -256.5 -103t-91.5 -274q1 -106 34 -200t109.5 -153t206.5 -59q184 0 257 105.5t71 309.5q-1 180 -70.5 277t-259.5 97z" />
<glyph unicode="A" horiz-adv-x="2106" d="M531 0h-464l707 2048h558l706 -2048h-464l-152 467h-739zM793 805h520l-252 775h-16z" />
<glyph unicode="B" horiz-adv-x="1861" d="M178 0v2048h820q339 0 509.5 -147.5t170.5 -377.5q0 -181 -105 -292.5t-265 -147.5v-20q117 -5 219.5 -66t166.5 -170t64 -261q0 -163 -80.5 -291t-237.5 -201.5t-387 -73.5h-875zM611 354h353q182 0 264.5 70t82.5 185q0 127 -90.5 208t-246.5 81h-363v-544zM611 1191 h321q133 0 221 69.5t88 190.5q0 111 -78.5 179t-222.5 68h-329v-507z" />
<glyph unicode="C" horiz-adv-x="2118" d="M1985 1331h-438q-25 169 -144 265.5t-297 96.5q-238 0 -381.5 -174.5t-143.5 -494.5q0 -328 144.5 -498.5t377.5 -170.5q173 0 293 90.5t151 254.5l438 -2q-23 -188 -134 -354t-301.5 -269t-453.5 -103q-274 0 -489.5 124t-340 359t-124.5 569q0 335 126 570t342 358.5 t486 123.5q237 0 427.5 -87.5t312 -254t149.5 -403.5z" />
<glyph unicode="D" horiz-adv-x="2048" d="M904 0h-726v2048h732q309 0 532.5 -122.5t343.5 -351.5t120 -548q0 -320 -120.5 -550t-345 -353t-536.5 -123zM611 371h275q289 0 438.5 156t149.5 499q0 341 -149.5 496t-437.5 155h-276v-1306z" />
<glyph unicode="E" horiz-adv-x="1725" d="M178 0v2048h1380v-357h-947v-488h876v-357h-876v-489h951v-357h-1384z" />
<glyph unicode="F" horiz-adv-x="1647" d="M178 0v2048h1356v-357h-923v-488h833v-357h-833v-846h-433z" />
<glyph unicode="G" horiz-adv-x="2142" d="M1536 1386q-41 144 -151.5 225.5t-277.5 81.5q-235 0 -380.5 -173.5t-145.5 -493.5q0 -321 143 -496t387 -175q216 0 339.5 112.5t127.5 302.5h-440v326h857v-258q0 -269 -114 -463.5t-313.5 -298.5t-458.5 -104q-288 0 -506 127.5t-339.5 363t-121.5 559.5 q0 332 127 568t344 361t487 125q232 0 420 -88t308 -243.5t148 -358.5h-440z" />
<glyph unicode="H" horiz-adv-x="2101" d="M178 0v2048h433v-845h879v845h432v-2048h-432v846h-879v-846h-433z" />
<glyph unicode="I" horiz-adv-x="790" d="M611 2048v-2048h-433v2048h433z" />
<glyph unicode="J" horiz-adv-x="1605" d="M998 2048h428v-1428q0 -198 -88.5 -343.5t-245.5 -225t-365 -79.5q-185 0 -335.5 66t-238.5 200t-87 338h431q2 -122 70.5 -189.5t181.5 -67.5q247 0 249 301v1428z" />
<glyph unicode="K" horiz-adv-x="1942" d="M178 0v2048h433v-903h27l737 903h519l-760 -917l769 -1131h-518l-561 842l-213 -260v-582h-433z" />
<glyph unicode="L" horiz-adv-x="1598" d="M178 0v2048h433v-1691h878v-357h-1311z" />
<glyph unicode="M" horiz-adv-x="2602" d="M178 2048h534l564 -1376h24l564 1376h534v-2048h-420v1333h-17l-530 -1323h-286l-530 1328h-17v-1338h-420v2048z" />
<glyph unicode="N" horiz-adv-x="2070" d="M1891 2048v-2048h-374l-891 1289h-15v-1289h-433v2048h380l884 -1288h18v1288h431z" />
<glyph unicode="O" horiz-adv-x="2202" d="M2060 1024q0 -335 -126.5 -570t-343.5 -358.5t-489 -123.5q-273 0 -490 124t-343 359.5t-126 568.5q0 335 126 570t343 358.5t490 123.5q272 0 489 -123.5t343.5 -358.5t126.5 -570zM1621 1024q0 326 -142 497.5t-378 171.5t-378 -171.5t-142 -497.5q0 -325 142 -497 t378 -172t378 172t142 497z" />
<glyph unicode="P" horiz-adv-x="1824" d="M178 0v2048h808q233 0 397 -88.5t250.5 -245t86.5 -360.5t-88 -359.5t-254.5 -243t-402.5 -87.5h-364v-664h-433zM611 1011h294q186 0 277.5 95.5t91.5 247.5q0 153 -91.5 246.5t-279.5 93.5h-292v-683z" />
<glyph unicode="Q" horiz-adv-x="2204" d="M2060 1024q0 -274 -87 -482t-237 -342l293 -368h-404l-165 203q-167 -63 -359 -63q-273 0 -490 124t-343 359.5t-126 568.5q0 335 126 570t343 358.5t490 123.5q272 0 489 -123.5t343.5 -358.5t126.5 -570zM951 712h368l152 -195q71 85 110.5 212t39.5 295 q0 326 -142 497.5t-378 171.5t-378 -171.5t-142 -497.5q0 -325 142 -497t378 -172q59 0 112 11z" />
<glyph unicode="R" horiz-adv-x="1848" d="M178 0v2048h808q349 0 541.5 -182t192.5 -487q0 -210 -93.5 -359t-268.5 -224l435 -796h-478l-388 726h-316v-726h-433zM611 1074h294q369 0 369 305q0 315 -371 315h-292v-620z" />
<glyph unicode="S" horiz-adv-x="1844" d="M1289 1459q-12 121 -103.5 188t-246.5 67q-159 0 -244 -65t-85 -164q-2 -110 94.5 -166.5t229.5 -87.5l184 -44q178 -40 316.5 -116t218 -195.5t79.5 -290.5q-1 -281 -210.5 -447.5t-584.5 -166.5q-373 0 -595 170t-230 502h419q11 -154 121.5 -231.5t279.5 -77.5 q165 0 263.5 70t99.5 182q-1 104 -91 160t-257 96l-223 56q-259 62 -409 197t-149 361q-1 186 99.5 325.5t276.5 217t400 77.5q228 0 398.5 -78t265.5 -217t98 -322h-415z" />
<glyph unicode="T" horiz-adv-x="1882" d="M100 1691v357h1682v-357h-627v-1691h-428v1691h-627z" />
<glyph unicode="U" horiz-adv-x="2054" d="M1446 2048h430v-1354q0 -232 -109 -393.5t-300.5 -245.5t-439.5 -84t-440 84t-300.5 245.5t-108.5 393.5v1354h433v-1339q0 -164 118.5 -258t297.5 -94q182 0 300.5 94t118.5 258v1339z" />
<glyph unicode="V" horiz-adv-x="2106" d="M548 2048l495 -1556h19l496 1556h480l-706 -2048h-558l-707 2048h481z" />
<glyph unicode="W" horiz-adv-x="2917" d="M639 0l-586 2048h473l339 -1423h17l374 1423h405l373 -1426h18l339 1426h473l-586 -2048h-422l-390 1339h-16l-389 -1339h-422z" />
<glyph unicode="X" horiz-adv-x="2012" d="M584 2048l413 -698h16l415 698h489l-625 -1024l639 -1024h-498l-420 699h-16l-420 -699h-496l641 1024l-629 1024h491z" />
<glyph unicode="Y" horiz-adv-x="2040" d="M58 2048h485l467 -882h20l467 882h485l-747 -1324v-724h-430v724z" />
<glyph unicode="Z" horiz-adv-x="1878" d="M156 0v257l1022 1434h-1024v357h1568v-257l-1023 -1434h1025v-357h-1568z" />
<glyph unicode="[" horiz-adv-x="1152" d="M298 -445v2531h789v-318h-377v-1894h377v-319h-789z" />
<glyph unicode="\" horiz-adv-x="1200" d="M105 2048h373l613 -2356h-373z" />
<glyph unicode="]" horiz-adv-x="1152" d="M854 2087v-2531h-789v318h377v1894h-377v319h789z" />
<glyph unicode="^" horiz-adv-x="1373" d="M93 1120l421 883h344l422 -883h-322l-263 597h-17l-261 -597h-324z" />
<glyph unicode="_" horiz-adv-x="1342" d="M1343 0v-323h-1345v323h1345z" />
<glyph unicode="`" horiz-adv-x="1400" d="M1003 1734h-301l-305 455h393z" />
<glyph unicode="a" horiz-adv-x="1634" d="M608 -29q-220 0 -365 115t-145 343q0 172 81 270t212.5 143.5t283.5 59.5q200 20 286 42t86 96v6q0 95 -59.5 147t-168.5 52q-115 0 -183 -50t-90 -127l-394 32q44 210 218.5 333t450.5 123q171 0 320 -54t240.5 -168.5t91.5 -297.5v-1036h-404v213h-12 q-56 -107 -167.5 -174.5t-281.5 -67.5zM730 265q140 0 230 81.5t90 202.5v163q-25 -17 -77.5 -30t-112 -22.5t-106.5 -16.5q-112 -16 -180.5 -63t-68.5 -137q0 -88 63.5 -133t161.5 -45z" />
<glyph unicode="b" horiz-adv-x="1789" d="M178 0v2048h426v-770h13q29 63 82 127t140 107.5t215 43.5q169 0 310 -87.5t226.5 -263t85.5 -439.5q0 -257 -83 -433.5t-224 -267t-316 -90.5q-124 0 -210.5 41t-141 103.5t-84.5 126.5h-19v-246h-420zM595 768q0 -205 84.5 -329.5t238.5 -124.5q157 0 240 126.5 t83 327.5q0 200 -82.5 324.5t-240.5 124.5q-155 0 -239 -121.5t-84 -327.5z" />
<glyph unicode="c" horiz-adv-x="1654" d="M864 -30q-236 0 -405.5 100.5t-260 279.5t-90.5 412q0 236 91.5 414.5t260.5 279t402 100.5q201 0 352.5 -73t239 -205t96.5 -310h-402q-17 115 -89.5 185.5t-189.5 70.5q-148 0 -238 -119t-90 -337q0 -220 89.5 -340.5t238.5 -120.5q110 0 185 66.5t94 189.5h402 q-10 -176 -95.5 -310t-235.5 -208.5t-355 -74.5z" />
<glyph unicode="d" horiz-adv-x="1789" d="M736 -25q-175 0 -316 90.5t-224 267t-83 433.5q0 264 85.5 439.5t227 263t309.5 87.5q129 0 215.5 -43.5t140 -107.5t81.5 -127h13v770h425v-2048h-420v246h-18q-29 -64 -84 -126.5t-141.5 -103.5t-210.5 -41zM871 314q154 0 238.5 124.5t84.5 329.5q0 206 -84 327.5 t-239 121.5q-158 0 -240.5 -124.5t-82.5 -324.5q0 -201 83 -327.5t240 -126.5z" />
<glyph unicode="e" horiz-adv-x="1683" d="M870 -30q-236 0 -407 96.5t-263 274t-92 420.5q0 237 92 416t259.5 279t393.5 100q203 0 366.5 -86t259.5 -259.5t96 -434.5v-117h-1046v-1q0 -172 94 -271t254 -99q107 0 185 45t110 133l394 -26q-45 -214 -228 -342t-468 -128zM529 923h645q-1 137 -88 226t-226 89 q-142 0 -233 -92t-98 -223z" />
<glyph unicode="f" horiz-adv-x="1100" d="M1010 1536v-320h-305v-1216h-426v1216h-217v320h217v111q0 251 143.5 374t360.5 123q98 0 179.5 -15t121.5 -27l-75 -320q-25 8 -62 15t-75 7q-94 0 -130.5 -43.5t-36.5 -121.5v-103h305z" />
<glyph unicode="g" horiz-adv-x="1783" d="M862 -598q-310 0 -487 122t-215 296l394 53q26 -62 101.5 -113.5t216.5 -51.5q139 0 229.5 66t90.5 217v281h-18q-42 -95 -148 -172.5t-290 -77.5q-173 0 -314.5 81t-225 247t-83.5 421q0 262 85.5 436t227 261.5t309.5 87.5q129 0 216 -43.5t141 -107.5t82 -127h16v258 h423v-1551q0 -191 -96.5 -321t-265.5 -196t-389 -66zM871 342q154 0 238.5 114t84.5 317q0 202 -84 323t-239 121q-158 0 -240.5 -124t-82.5 -320q0 -199 83 -315t240 -116z" />
<glyph unicode="h" horiz-adv-x="1758" d="M596 888v-888h-426v2048h414v-783h18q53 136 168.5 213.5t290.5 77.5q240 0 386 -154t145 -424v-978h-426v902q1 142 -71.5 221t-202.5 79t-212.5 -82.5t-83.5 -231.5z" />
<glyph unicode="i" d="M170 0v1536h426v-1536h-426zM384 1734q-94 0 -162 63.5t-68 152.5t68 152t162 63q95 0 163 -63t68 -152t-68 -152.5t-163 -63.5z" />
<glyph unicode="j" d="M170 1536h426v-1607q0 -267 -156 -387t-433 -113q-17 0 -35.5 0.5t-43.5 1.5v333q17 -1 30 -1.5t26 -0.5q103 0 144.5 43.5t41.5 130.5v1600zM382 1734q-94 0 -162 63.5t-68 152.5t68 152t162 63q95 0 163 -63t68 -152t-68 -152.5t-163 -63.5z" />
<glyph unicode="k" horiz-adv-x="1638" d="M170 0v2048h426v-1095h23l492 583h489l-570 -665l599 -871h-499l-419 619l-115 -131v-488h-426z" />
<glyph unicode="l" d="M596 2048v-2048h-426v2048h426z" />
<glyph unicode="m" horiz-adv-x="2568" d="M170 0v1536h406v-271h18q48 136 160.5 213.5t267.5 77.5q158 0 269 -78.5t148 -212.5h16q47 132 170.5 211.5t292.5 79.5q215 0 349.5 -136.5t134.5 -386.5v-1033h-425v949q0 128 -68 192t-170 64q-116 0 -181 -74t-65 -193v-938h-413v958q0 113 -64.5 180t-169.5 67 q-106 0 -178 -77.5t-72 -205.5v-922h-426z" />
<glyph unicode="n" horiz-adv-x="1751" d="M596 888v-888h-426v1536h406v-271h18q52 134 171.5 212.5t290.5 78.5q240 0 385 -154.5t145 -423.5v-978h-426v902q1 141 -72 220.5t-201 79.5q-129 0 -209.5 -82.5t-81.5 -231.5z" />
<glyph unicode="o" horiz-adv-x="1728" d="M864 -30q-233 0 -402.5 99.5t-261.5 278t-92 414.5q0 238 92 416.5t261.5 278t402.5 99.5t402.5 -99.5t261.5 -278t92 -416.5q0 -236 -92 -414.5t-261.5 -278t-402.5 -99.5zM866 300q158 0 239.5 132t81.5 333t-81.5 333.5t-239.5 132.5q-161 0 -243 -132.5t-82 -333.5 t82 -333t243 -132z" />
<glyph unicode="p" horiz-adv-x="1781" d="M170 -576v2112h420v-258h19q29 63 82 127t140 107.5t215 43.5q169 0 310 -87.5t226.5 -263t85.5 -439.5q0 -257 -83 -433.5t-224 -267t-316 -90.5q-124 0 -210.5 41t-141 103.5t-84.5 126.5h-13v-822h-426zM587 768q0 -205 84.5 -329.5t238.5 -124.5q157 0 240 126.5 t83 327.5q0 200 -82.5 324.5t-240.5 124.5q-155 0 -239 -121.5t-84 -327.5z" />
<glyph unicode="q" horiz-adv-x="1781" d="M1611 -576v2112h-420v-258h-19q-29 63 -82 127t-140 107.5t-215 43.5q-169 0 -310 -87.5t-226.5 -263t-85.5 -439.5q0 -257 83 -433.5t224 -267t316 -90.5q124 0 210.5 41t141 103.5t84.5 126.5h13v-822h426zM1194 768q0 -205 -84.5 -329.5t-238.5 -124.5 q-157 0 -240 126.5t-83 327.5q0 200 82.5 324.5t240.5 124.5q155 0 239 -121.5t84 -327.5z" />
<glyph unicode="r" horiz-adv-x="1207" d="M170 0v1536h413v-268h16q42 143 140.5 216.5t228.5 73.5q62 0 115 -15t95 -41l-128 -352q-30 15 -65.5 25.5t-79.5 10.5q-129 0 -218.5 -88t-90.5 -229v-869h-426z" />
<glyph unicode="s" horiz-adv-x="1582" d="M1448 1098l-390 -24q-16 74 -81 127t-176 53q-99 0 -167.5 -41.5t-67.5 -110.5q-1 -55 43.5 -93t151.5 -61l278 -56q443 -91 444 -416q0 -151 -88.5 -265t-242.5 -177.5t-353 -63.5q-305 0 -486 127.5t-211 347.5l419 22q20 -94 92.5 -142t186.5 -48q112 0 180.5 44 t69.5 112q-3 114 -197 153l-266 53q-446 89 -444 439q-1 222 177.5 350t473.5 128q291 0 458.5 -123t195.5 -335z" />
<glyph unicode="t" horiz-adv-x="1094" d="M987 1536v-320h-289v-744q0 -88 40 -119t104 -31q30 0 60 5.5t46 8.5l67 -317q-32 -10 -90 -23.5t-141 -16.5q-232 -10 -372.5 100.5t-139.5 336.5v800h-210v320h210v368h426v-368h289z" />
<glyph unicode="u" horiz-adv-x="1751" d="M1155 654v882h426v-1536h-409v279h-16q-52 -135 -172.5 -217t-293.5 -82q-232 0 -375.5 154.5t-144.5 423.5v978h426v-902q1 -136 73 -215t193 -79q115 0 204.5 80t88.5 234z" />
<glyph unicode="v" horiz-adv-x="1650" d="M1602 1536l-537 -1536h-480l-537 1536h450l319 -1099h16l318 1099h451z" />
<glyph unicode="w" horiz-adv-x="2394" d="M473 0l-418 1536h431l238 -1032h14l248 1032h423l252 -1026h13l234 1026h430l-417 -1536h-451l-264 966h-19l-264 -966h-450z" />
<glyph unicode="x" horiz-adv-x="1616" d="M526 1536l282 -537l289 537h437l-445 -768l457 -768h-435l-303 531l-298 -531h-440l456 768l-440 768h440z" />
<glyph unicode="y" horiz-adv-x="1650" d="M418 -598q-91 0 -155.5 15.5t-100.5 31.5l96 330q113 -34 190.5 -18t122.5 121l28 74l-551 1580h448l318 -1128h16l321 1128h451l-600 -1712q-65 -184 -207.5 -303t-376.5 -119z" />
<glyph unicode="z" horiz-adv-x="1610" d="M162 0v254l752 931v11h-726v340h1239v-277l-706 -908v-11h732v-340h-1291z" />
<glyph unicode="{" horiz-adv-x="1152" d="M1087 -445q-151 0 -278 19t-220 76t-144 168.5t-51 296.5v222q0 154 -67 223t-240 69v384q173 0 240 69t67 223v221q0 185 51 296.5t144 168.5t220 76t278 19v-318q-178 0 -231.5 -69.5t-53.5 -215.5v-292q0 -77 -28.5 -145.5t-105.5 -121.5t-222 -83v-40 q145 -30 222 -83t105.5 -122t28.5 -146v-292q0 -145 53.5 -214.5t231.5 -69.5v-319z" />
<glyph unicode="|" horiz-adv-x="1052" d="M728 2708v-3368h-404v3368h404z" />
<glyph unicode="}" horiz-adv-x="1152" d="M65 2087q151 0 278 -19t220 -76t144 -168.5t51 -296.5v-222q0 -154 67 -223t240 -69v-384q-173 0 -240 -69t-67 -223v-221q0 -185 -51 -296.5t-144 -168.5t-220 -76t-278 -19v318q178 0 231.5 69.5t53.5 215.5v292q0 77 28.5 145.5t105.5 121.5t222 83v40 q-145 30 -222 83t-105.5 122t-28.5 146v292q0 145 -53.5 214.5t-231.5 69.5v319z" />
<glyph unicode="~" horiz-adv-x="1894" d="M206 553q-10 284 109 435.5t323 151.5q94 0 179.5 -38.5t195.5 -135.5q57 -50 97 -77t92 -27q71 0 117.5 55.5t42.5 176.5h327q10 -284 -112 -436t-320 -152q-100 0 -186.5 41.5t-191.5 133.5q-62 55 -98.5 79.5t-88.5 24.5q-70 0 -116.5 -53.5t-43.5 -178.5h-326z" />
<glyph unicode="&#xa1;" horiz-adv-x="914" d="M679 -518l-39 1434h-366l-40 -1434h445zM457 1556q-99 0 -170 -70t-70 -170q-1 -98 70 -168t170 -70q96 0 167.5 70t72.5 168q-1 100 -72.5 170t-167.5 70z" />
<glyph unicode="&#xa2;" horiz-adv-x="1654" d="M768 -256v231q-208 20 -355.5 124.5t-226 275t-78.5 387.5q0 219 79.5 389.5t227.5 275t353 124.5v229h186v-228q262 -25 423 -182t173 -402h-402q-14 92 -64 156.5t-130 88.5v-894q76 22 127.5 84t66.5 160h402q-14 -245 -171.5 -404.5t-424.5 -184.5v-230h-186z M768 323v885q-105 -36 -166 -149t-61 -291q0 -181 61 -294.5t166 -150.5z" />
<glyph unicode="&#xa3;" horiz-adv-x="1891" d="M1686 0h-1488v357h131q65 14 85 86t18 151l-8 221h-231v341h220l-11 313q-7 195 76 330.5t231 206t334 70.5q209 0 356 -76t222.5 -209t68.5 -306l-405 11q4 128 -67 180.5t-168 52.5q-94 0 -158.5 -64t-63.5 -196l12 -313h450v-341h-437l7 -197q6 -163 -79 -261h905 v-357z" />
<glyph unicode="&#xa4;" horiz-adv-x="2154" d="M234 836q0 143 41 271t114 233l-201 202l191 196l204 -202q104 76 230 118t264 42t264.5 -43t231.5 -120l205 205l195 -196l-209 -207q72 -104 113 -230.5t41 -268.5q0 -135 -37.5 -257.5t-104.5 -224.5l197 -192l-195 -196l-186 186q-107 -85 -238.5 -132.5 t-276.5 -47.5t-276 46.5t-238 129.5l-184 -182l-191 196l189 187q-68 103 -105.5 226.5t-37.5 260.5zM490 836q0 -169 78 -305.5t211.5 -217t297.5 -80.5q161 0 293.5 80.5t211.5 217t80 305.5q-1 171 -80 307.5t-211.5 216t-293.5 79.5q-164 0 -297.5 -79.5t-211.5 -216 t-78 -307.5z" />
<glyph unicode="&#xa5;" horiz-adv-x="1611" d="M484 2048l322 -785l321 785h444l-456 -992h303v-247h-404v-149h404v-247h-404v-413h-428v413h-436v247h436v149h-436v247h344l-454 992h444z" />
<glyph unicode="&#xa6;" horiz-adv-x="971" d="M295 571h381v-955h-381v955zM676 2048v-951h-381v951h381z" />
<glyph unicode="&#xa7;" horiz-adv-x="1670" d="M1404 1540h-374q-1 77 -53.5 128.5t-156.5 51.5q-79 0 -138.5 -35t-59.5 -107t65 -123.5t125 -75.5l383 -177q40 -18 97 -52t110.5 -88t86 -133.5t22.5 -188.5q-7 -83 -51 -140.5t-99.5 -91t-100.5 -46.5l-5 -4q171 -151 171 -372q0 -158 -78 -270t-212 -171t-302 -59 q-184 0 -324.5 68t-219.5 191.5t-79 290.5h376q0 -94 67.5 -145t184.5 -46q77 2 142.5 35t65.5 106q0 78 -64.5 124.5t-120.5 74.5l-383 173q-41 18 -98 52t-111 89t-86 135t-23 190q7 84 48.5 141t97.5 91t107 48v3q-76 74 -122.5 165t-45.5 206q0 144 73 256.5t203 177 t298 64.5q176 0 307 -69.5t204 -190.5t73 -276zM1162 718q14 106 -162 181l-334 151q-54 25 -102.5 -8t-55.5 -96q-7 -53 36 -100t127 -83l334 -149q47 -21 98 10t59 94z" />
<glyph unicode="&#xa8;" horiz-adv-x="1506" d="M448 1746q-86 0 -148 60.5t-62 143.5q0 85 62 144t148 59q87 0 147.5 -59t60.5 -144q0 -83 -60.5 -143.5t-147.5 -60.5zM1060 1746q-86 0 -148 60.5t-62 143.5q0 85 62 144t148 59q87 0 147.5 -59t60.5 -144q0 -83 -60.5 -143.5t-147.5 -60.5z" />
<glyph unicode="&#xa9;" horiz-adv-x="2418" d="M204 1004q0 218 79 404.5t217.5 327t320.5 218.5t388 78q208 0 390 -78t320.5 -218.5t216.5 -327t78 -404.5q0 -219 -78 -407t-216.5 -328t-320.5 -218.5t-390 -78.5q-206 0 -388 78.5t-320.5 218.5t-217.5 328t-79 407zM377 1004q0 -183 65 -339.5t180 -273.5 t265.5 -182t321.5 -65q173 0 323.5 65t265 182t179 273.5t64.5 339.5q0 182 -64.5 337.5t-179 272t-265 181.5t-323.5 65q-171 0 -321.5 -65t-265.5 -181.5t-180 -272t-65 -337.5zM1444 820h223q1 -216 -129 -324t-348 -108q-225 0 -359 147.5t-135 384.5v164 q1 237 135 384.5t359 147.5q218 0 348 -108t129 -324h-221q0 132 -65 190t-191 58q-135 0 -203.5 -97.5t-68.5 -250.5v-164q0 -153 68.5 -250.5t203.5 -97.5q126 0 190.5 56.5t63.5 191.5z" />
<glyph unicode="&#xaa;" horiz-adv-x="1372" d="M869 1065q-44 -47 -114.5 -80t-172.5 -33q-168 0 -259.5 85.5t-91.5 226.5q0 153 120 235.5t364 82.5h143v70q0 83 -40 129.5t-125 46.5q-92 0 -143.5 -35t-51.5 -101l-245 18q0 140 120.5 231t319.5 91q185 0 298.5 -95.5t113.5 -284.5v-432q0 -58 6.5 -121.5 t31.5 -128.5h-251q-15 45 -23 95zM858 1422h-143q-121 0 -178 -46t-57 -106q0 -55 39.5 -87.5t125.5 -32.5q57 0 116 25.5t97 60.5v186z" />
<glyph unicode="&#xab;" horiz-adv-x="1762" d="M954 220h-386l-404 600v28l404 600h386l-380 -614zM1612 220h-386l-404 600v28l404 600h386l-380 -614z" />
<glyph unicode="&#xac;" horiz-adv-x="1633" d="M1410 1108v-592h-283v356h-898v236h1181z" />
<glyph unicode="&#xad;" horiz-adv-x="1320" d="M1127 1010v-338h-934v338h934z" />
<glyph unicode="&#xae;" horiz-adv-x="2418" d="M204 1004q0 218 79 404.5t217.5 327t320.5 218.5t388 78q208 0 390 -78t320.5 -218.5t216.5 -327t78 -404.5q0 -219 -78 -407t-216.5 -328t-320.5 -218.5t-390 -78.5q-206 0 -388 78.5t-320.5 218.5t-217.5 328t-79 407zM377 1004q0 -183 65 -339.5t180 -273.5 t265.5 -182t321.5 -65q173 0 323.5 65t265 182t179 273.5t64.5 339.5q0 182 -64.5 337.5t-179 272t-265 181.5t-323.5 65q-171 0 -321.5 -65t-265.5 -181.5t-180 -272t-65 -337.5zM1229 900h-221v-464h-215v1168h397q212 0 337 -92.5t124 -269.5q1 -153 -156 -237 q84 -44 118 -121.5t34 -175.5v-76q2 -113 24 -176v-20h-219q-14 33 -16.5 99.5t-3.5 96.5v76q1 96 -45 144t-158 48zM1008 1084h186q98 0 172.5 40.5t73.5 119.5q1 99 -55.5 137.5t-194.5 38.5h-182v-336z" />
<glyph unicode="&#xaf;" horiz-adv-x="1590" d="M1282 2048v-231h-974v231h974z" />
<glyph unicode="&#xb0;" horiz-adv-x="1294" d="M647 1072q-136 0 -247 66.5t-177.5 178t-66.5 246.5q0 136 66.5 247.5t177.5 177.5t247 66t247.5 -66t177.5 -177.5t66 -247.5q0 -135 -66 -246.5t-177.5 -178t-247.5 -66.5zM647 1356q86 0 146.5 61t60.5 146q0 86 -60.5 146.5t-146.5 60.5q-85 0 -146 -60.5t-61 -146.5 q0 -85 61 -146t146 -61z" />
<glyph unicode="&#xb1;" horiz-adv-x="1894" d="M243 909v329h525v346h358v-346h525v-329h-525v-346h-358v346h-525zM243 77v339h1408v-339h-1408z" />
<glyph unicode="&#xb2;" horiz-adv-x="1194" d="M123 1024v221l487 389q84 68 134 120.5t50 121.5q0 72 -59 111t-143 39q-90 0 -144.5 -43.5t-54.5 -125.5h-295q0 193 140.5 302t357.5 109q224 0 357 -112t133 -276q0 -132 -82.5 -238t-260.5 -225l-178 -132v-11h535v-250h-977z" />
<glyph unicode="&#xb3;" horiz-adv-x="1246" d="M618 1008q-226 0 -374 103t-153 269h314q5 -55 65.5 -86.5t147.5 -31.5q90 0 153 35.5t63 99.5q0 61 -63.5 100t-175.5 39h-141v227h141q93 0 150 37.5t57 96.5q0 58 -49.5 93.5t-130.5 35.5q-85 0 -145 -34t-63 -90h-295q2 109 69.5 191t181 128.5t255.5 46.5 q215 0 345.5 -102.5t130.5 -249.5q0 -108 -75 -173t-179 -79v-10q146 -14 226.5 -88t80.5 -190q0 -108 -69.5 -191t-190.5 -130t-276 -47z" />
<glyph unicode="&#xb4;" horiz-adv-x="1400" d="M397 1734l213 455h393l-305 -455h-301z" />
<glyph unicode="&#xb5;" horiz-adv-x="1877" d="M170 -557v2093h426v-882q1 -139 95.5 -226.5t246.5 -87.5q154 0 248.5 87.5t94.5 226.5v882h425v-1536h-408v218h-12q-46 -100 -139 -154.5t-209 -54.5q-115 0 -207.5 54.5t-139.5 154.5h-12v-775h-409z" />
<glyph unicode="&#xb6;" horiz-adv-x="1717" d="M1199 0v1720h-248v-960h-118q-225 0 -380 83.5t-235 229t-80 331.5q0 184 80 329.5t235 230t380 84.5h705v-2048h-339z" />
<glyph unicode="&#xb7;" horiz-adv-x="837" d="M428 724q-99 0 -170 70t-70 170q-1 98 70 168t170 70q96 0 167.5 -70t72.5 -168q-1 -100 -72.5 -170t-167.5 -70z" />
<glyph unicode="&#xb8;" horiz-adv-x="1054" d="M431 8h196l-16 -87q103 -16 168.5 -77t66.5 -166q1 -149 -138 -237.5t-390 -88.5l-4 190q126 0 198 30.5t74 94.5q2 62 -47 93.5t-153 44.5z" />
<glyph unicode="&#xb9;" horiz-adv-x="894" d="M686 2252v-1228h-300v858h-12q-23 -31 -93 -55t-187 -23v244q90 0 156.5 32.5t103.5 80.5t40 91h292z" />
<glyph unicode="&#xba;" horiz-adv-x="1365" d="M192 1436v106q0 215 133 352.5t357 137.5q228 0 359.5 -137.5t131.5 -352.5v-106q0 -213 -130 -349.5t-357 -136.5q-229 0 -361.5 136.5t-132.5 349.5zM439 1542v-106q0 -123 62 -203.5t185 -80.5q121 0 180.5 80.5t59.5 203.5v106q0 120 -60 203t-184 83 q-120 0 -181.5 -83t-61.5 -203z" />
<glyph unicode="&#xbb;" horiz-adv-x="1772" d="M142 220l380 614l-380 614h386l404 -600v-28l-404 -600h-386zM810 220l380 614l-380 614h386l404 -600v-28l-404 -600h-386z" />
<glyph unicode="&#xbc;" horiz-adv-x="2510" d="M339 0l1408 2048h261l-1408 -2048h-261zM622 2048v-1088h-276v750h-12q-19 -27 -83.5 -45t-166.5 -17v221q125 -2 196.5 60t74.5 119h267zM1425 174v222l507 692h352v-688h159v-226h-159v-174h-265v174h-594zM2023 400v390h-11l-304 -381v-9h315z" />
<glyph unicode="&#xbd;" horiz-adv-x="2579" d="M339 0l1408 2048h261l-1408 -2048h-261zM622 2048v-1088h-276v750h-12q-19 -27 -83.5 -45t-166.5 -17v221q125 -2 196.5 60t74.5 119h267zM1619 0v200l442 343q71 56 117 102.5t46 105.5q0 64 -53 97.5t-131 33.5q-79 0 -128.5 -37t-49.5 -109h-265q0 171 126.5 269.5 t323.5 98.5q200 0 319.5 -101.5t119.5 -247.5q0 -118 -75 -212.5t-235 -196.5l-157 -108v-10h478v-228h-878z" />
<glyph unicode="&#xbe;" horiz-adv-x="2751" d="M580 0l1408 2048h261l-1408 -2048h-261zM1666 174v222l507 692h352v-688h159v-226h-159v-174h-265v174h-594zM2264 400v390h-11l-304 -381v-9h315zM560 944q-214 0 -344 95t-134 237h284q4 -47 59 -73.5t133 -26.5q84 0 139 30.5t55 83.5q0 52 -56 85.5t-157 33.5h-131 v208h131q81 0 132.5 32t51.5 83q0 50 -44.5 80t-116.5 30t-127.5 -27.5t-59.5 -74.5h-269q4 95 65 168t164 114.5t230 41.5q193 0 311 -91.5t118 -222.5q0 -89 -62 -148.5t-163 -73.5v-10q133 -13 203 -79.5t70 -167.5q0 -95 -63 -169t-172 -116t-247 -42z" />
<glyph unicode="&#xbf;" horiz-adv-x="1584" d="M1048 901v-34q-1 -175 -31.5 -279t-89 -167.5t-142.5 -116.5q-92 -59 -155 -128.5t-63 -167.5q0 -104 71.5 -166.5t172.5 -62.5q98 0 175.5 64t82.5 186h408q-5 -200 -96 -331t-241 -195t-331 -64q-199 0 -352 65.5t-240 189.5t-87 299q0 176 84.5 293t224.5 200 q118 71 173 153t57 228v34h379zM851 1541q99 0 170 -70t70 -170q1 -98 -70 -168t-170 -70q-96 0 -167.5 70t-72.5 168q1 100 72.5 170t167.5 70z" />
<glyph unicode="&#xc0;" horiz-adv-x="2106" d="M531 0h-464l707 2048h558l706 -2048h-464l-152 467h-739zM793 805h520l-252 775h-16zM1206 2246h-301l-305 455h393z" />
<glyph unicode="&#xc1;" horiz-adv-x="2106" d="M531 0h-464l707 2048h558l706 -2048h-464l-152 467h-739zM793 805h520l-252 775h-16zM899 2246l213 455h393l-305 -455h-301z" />
<glyph unicode="&#xc2;" horiz-adv-x="2106" d="M531 0h-464l707 2048h558l706 -2048h-464l-152 467h-739zM793 805h520l-252 775h-16zM852 2230l201 244l201 -244h363v14l-406 440h-317l-405 -440v-14h363z" />
<glyph unicode="&#xc3;" horiz-adv-x="2106" d="M531 0h-464l707 2048h558l706 -2048h-464l-152 467h-739zM793 805h520l-252 775h-16zM767 2250l-237 3q0 191 94.5 293t230.5 103q78 0 132 -28.5t99 -59.5q35 -25 67.5 -43.5t70.5 -18.5q58 1 88 43.5t31 111.5l233 -7q-1 -190 -95 -292t-230 -103q-84 0 -137 28.5 t-95 59.5q-33 25 -65 43.5t-72 18.5q-52 0 -83.5 -41t-31.5 -111z" />
<glyph unicode="&#xc4;" horiz-adv-x="2106" d="M531 0h-464l707 2048h558l706 -2048h-464l-152 467h-739zM793 805h520l-252 775h-16zM748 2258q-86 0 -148 60.5t-62 143.5q0 85 62 144t148 59q87 0 147.5 -59t60.5 -144q0 -83 -60.5 -143.5t-147.5 -60.5zM1360 2258q-86 0 -148 60.5t-62 143.5q0 85 62 144t148 59 q87 0 147.5 -59t60.5 -144q0 -83 -60.5 -143.5t-147.5 -60.5z" />
<glyph unicode="&#xc5;" horiz-adv-x="2106" d="M531 0h-464l707 2048h558l706 -2048h-464l-152 467h-739zM793 805h520l-252 775h-16zM1053 2158q-90 0 -163.5 41.5t-117.5 112t-44 155.5q0 86 44 156t117.5 112t163.5 42t163.5 -42t117.5 -112t44 -156q0 -85 -44 -155.5t-117.5 -112t-163.5 -41.5zM1053 2331 q59 1 100.5 40.5t41.5 95.5t-41.5 96.5t-100.5 39.5q-58 0 -100.5 -40t-42.5 -96t42 -96t101 -40z" />
<glyph unicode="&#xc6;" horiz-adv-x="2901" d="M67 0l877 2048h1790v-357h-947v-488h876v-357h-876v-489h951v-357h-1384v467h-619l-192 -467h-476zM875 805h479v817h-143z" />
<glyph unicode="&#xc7;" horiz-adv-x="2118" d="M1985 1331h-438q-25 169 -144 265.5t-297 96.5q-238 0 -381.5 -174.5t-143.5 -494.5q0 -328 144.5 -498.5t377.5 -170.5q173 0 293 90.5t151 254.5l438 -2q-23 -188 -134 -354t-301.5 -269t-453.5 -103q-274 0 -489.5 124t-340 359t-124.5 569q0 335 126 570t342 358.5 t486 123.5q237 0 427.5 -87.5t312 -254t149.5 -403.5zM989 6h196l-16 -87q103 -16 168.5 -77t66.5 -166q1 -149 -138 -237.5t-390 -88.5l-4 190q126 0 198 30.5t74 94.5q2 62 -47 93.5t-153 44.5z" />
<glyph unicode="&#xc8;" horiz-adv-x="1725" d="M178 0v2048h1380v-357h-947v-488h876v-357h-876v-489h951v-357h-1384zM1025 2246h-301l-305 455h393z" />
<glyph unicode="&#xc9;" horiz-adv-x="1725" d="M178 0v2048h1380v-357h-947v-488h876v-357h-876v-489h951v-357h-1384zM718 2246l213 455h393l-305 -455h-301z" />
<glyph unicode="&#xca;" horiz-adv-x="1725" d="M178 0v2048h1380v-357h-947v-488h876v-357h-876v-489h951v-357h-1384zM670 2230l201 244l201 -244h363v14l-406 440h-317l-405 -440v-14h363z" />
<glyph unicode="&#xcb;" horiz-adv-x="1725" d="M178 0v2048h1380v-357h-947v-488h876v-357h-876v-489h951v-357h-1384zM566 2258q-86 0 -148 60.5t-62 143.5q0 85 62 144t148 59q87 0 147.5 -59t60.5 -144q0 -83 -60.5 -143.5t-147.5 -60.5zM1178 2258q-86 0 -148 60.5t-62 143.5q0 85 62 144t148 59q87 0 147.5 -59 t60.5 -144q0 -83 -60.5 -143.5t-147.5 -60.5z" />
<glyph unicode="&#xcc;" horiz-adv-x="790" d="M611 2048v-2048h-433v2048h433zM549 2246h-301l-305 455h393z" />
<glyph unicode="&#xcd;" horiz-adv-x="790" d="M611 2048v-2048h-433v2048h433zM243 2246l213 455h393l-305 -455h-301z" />
<glyph unicode="&#xce;" horiz-adv-x="790" d="M611 2048v-2048h-433v2048h433zM195 2230l201 244l201 -244h363v14l-406 440h-317l-405 -440v-14h363z" />
<glyph unicode="&#xcf;" horiz-adv-x="790" d="M611 2048v-2048h-433v2048h433zM91 2258q-86 0 -148 60.5t-62 143.5q0 85 62 144t148 59q87 0 147.5 -59t60.5 -144q0 -83 -60.5 -143.5t-147.5 -60.5zM703 2258q-86 0 -148 60.5t-62 143.5q0 85 62 144t148 59q87 0 147.5 -59t60.5 -144q0 -83 -60.5 -143.5 t-147.5 -60.5z" />
<glyph unicode="&#xd0;" horiz-adv-x="2048" d="M-107 954v251h998v-251h-998zM904 0h-726v2048h732q309 0 532.5 -122.5t343.5 -351.5t120 -548q0 -320 -120.5 -550t-345 -353t-536.5 -123zM611 371h275q289 0 438.5 156t149.5 499q0 341 -149.5 496t-437.5 155h-276v-1306z" />
<glyph unicode="&#xd1;" horiz-adv-x="2070" d="M1891 2048v-2048h-374l-891 1289h-15v-1289h-433v2048h380l884 -1288h18v1288h431zM750 2237l-237 3q0 191 94.5 293t230.5 103q78 0 132 -28.5t99 -59.5q35 -25 67.5 -43.5t70.5 -18.5q58 1 88 43.5t31 111.5l233 -7q-1 -190 -95 -292t-230 -103q-84 0 -137 28.5 t-95 59.5q-33 25 -65 43.5t-72 18.5q-52 0 -83.5 -41t-31.5 -111z" />
<glyph unicode="&#xd2;" horiz-adv-x="2202" d="M2060 1024q0 -335 -126.5 -570t-343.5 -358.5t-489 -123.5q-273 0 -490 124t-343 359.5t-126 568.5q0 335 126 570t343 358.5t490 123.5q272 0 489 -123.5t343.5 -358.5t126.5 -570zM1621 1024q0 326 -142 497.5t-378 171.5t-378 -171.5t-142 -497.5q0 -325 142 -497 t378 -172t378 172t142 497zM1254 2246h-301l-305 455h393z" />
<glyph unicode="&#xd3;" horiz-adv-x="2202" d="M2060 1024q0 -335 -126.5 -570t-343.5 -358.5t-489 -123.5q-273 0 -490 124t-343 359.5t-126 568.5q0 335 126 570t343 358.5t490 123.5q272 0 489 -123.5t343.5 -358.5t126.5 -570zM1621 1024q0 326 -142 497.5t-378 171.5t-378 -171.5t-142 -497.5q0 -325 142 -497 t378 -172t378 172t142 497zM947 2246l213 455h393l-305 -455h-301z" />
<glyph unicode="&#xd4;" horiz-adv-x="2202" d="M2060 1024q0 -335 -126.5 -570t-343.5 -358.5t-489 -123.5q-273 0 -490 124t-343 359.5t-126 568.5q0 335 126 570t343 358.5t490 123.5q272 0 489 -123.5t343.5 -358.5t126.5 -570zM1621 1024q0 326 -142 497.5t-378 171.5t-378 -171.5t-142 -497.5q0 -325 142 -497 t378 -172t378 172t142 497zM900 2230l201 244l201 -244h363v14l-406 440h-317l-405 -440v-14h363z" />
<glyph unicode="&#xd5;" horiz-adv-x="2202" d="M2060 1024q0 -335 -126.5 -570t-343.5 -358.5t-489 -123.5q-273 0 -490 124t-343 359.5t-126 568.5q0 335 126 570t343 358.5t490 123.5q272 0 489 -123.5t343.5 -358.5t126.5 -570zM1621 1024q0 326 -142 497.5t-378 171.5t-378 -171.5t-142 -497.5q0 -325 142 -497 t378 -172t378 172t142 497zM815 2250l-237 3q0 191 94.5 293t230.5 103q78 0 132 -28.5t99 -59.5q35 -25 67.5 -43.5t70.5 -18.5q58 1 88 43.5t31 111.5l233 -7q-1 -190 -95 -292t-230 -103q-84 0 -137 28.5t-95 59.5q-33 25 -65 43.5t-72 18.5q-52 0 -83.5 -41t-31.5 -111z " />
<glyph unicode="&#xd6;" horiz-adv-x="2202" d="M2060 1024q0 -335 -126.5 -570t-343.5 -358.5t-489 -123.5q-273 0 -490 124t-343 359.5t-126 568.5q0 335 126 570t343 358.5t490 123.5q272 0 489 -123.5t343.5 -358.5t126.5 -570zM1621 1024q0 326 -142 497.5t-378 171.5t-378 -171.5t-142 -497.5q0 -325 142 -497 t378 -172t378 172t142 497zM796 2258q-86 0 -148 60.5t-62 143.5q0 85 62 144t148 59q87 0 147.5 -59t60.5 -144q0 -83 -60.5 -143.5t-147.5 -60.5zM1408 2258q-86 0 -148 60.5t-62 143.5q0 85 62 144t148 59q87 0 147.5 -59t60.5 -144q0 -83 -60.5 -143.5t-147.5 -60.5z " />
<glyph unicode="&#xd7;" horiz-adv-x="1894" d="M1414 90l-467 466l-466 -466l-263 263l466 465l-466 465l263 265l466 -466l467 466l262 -265l-465 -465l465 -465z" />
<glyph unicode="&#xd8;" horiz-adv-x="2202" d="M463 -98l-195 132l149 214q-129 135 -202 330.5t-73 445.5q0 335 126 570t343 358.5t490 123.5q279 0 498 -129l136 195l195 -132l-146 -209q129 -135 202.5 -330.5t73.5 -446.5q0 -335 -126.5 -570t-343.5 -358.5t-489 -123.5q-280 0 -499 129zM1621 1024q0 250 -88 415 l-703 -1010q115 -74 271 -74q236 0 378 172t142 497zM669 610l702 1009q-115 74 -270 74q-236 0 -378 -171.5t-142 -497.5q0 -249 88 -414z" />
<glyph unicode="&#xd9;" horiz-adv-x="2054" d="M1446 2048h430v-1354q0 -232 -109 -393.5t-300.5 -245.5t-439.5 -84t-440 84t-300.5 245.5t-108.5 393.5v1354h433v-1339q0 -164 118.5 -258t297.5 -94q182 0 300.5 94t118.5 258v1339zM1181 2246h-301l-305 455h393z" />
<glyph unicode="&#xda;" horiz-adv-x="2054" d="M1446 2048h430v-1354q0 -232 -109 -393.5t-300.5 -245.5t-439.5 -84t-440 84t-300.5 245.5t-108.5 393.5v1354h433v-1339q0 -164 118.5 -258t297.5 -94q182 0 300.5 94t118.5 258v1339zM874 2246l213 455h393l-305 -455h-301z" />
<glyph unicode="&#xdb;" horiz-adv-x="2054" d="M1446 2048h430v-1354q0 -232 -109 -393.5t-300.5 -245.5t-439.5 -84t-440 84t-300.5 245.5t-108.5 393.5v1354h433v-1339q0 -164 118.5 -258t297.5 -94q182 0 300.5 94t118.5 258v1339zM826 2230l201 244l201 -244h363v14l-406 440h-317l-405 -440v-14h363z" />
<glyph unicode="&#xdc;" horiz-adv-x="2054" d="M1446 2048h430v-1354q0 -232 -109 -393.5t-300.5 -245.5t-439.5 -84t-440 84t-300.5 245.5t-108.5 393.5v1354h433v-1339q0 -164 118.5 -258t297.5 -94q182 0 300.5 94t118.5 258v1339zM722 2258q-86 0 -148 60.5t-62 143.5q0 85 62 144t148 59q87 0 147.5 -59t60.5 -144 q0 -83 -60.5 -143.5t-147.5 -60.5zM1334 2258q-86 0 -148 60.5t-62 143.5q0 85 62 144t148 59q87 0 147.5 -59t60.5 -144q0 -83 -60.5 -143.5t-147.5 -60.5z" />
<glyph unicode="&#xdd;" horiz-adv-x="2040" d="M58 2048h485l467 -882h20l467 882h485l-747 -1324v-724h-430v724zM867 2246l213 455h393l-305 -455h-301z" />
<glyph unicode="&#xde;" horiz-adv-x="1889" d="M174 2048h433v-376h300q247 0 417.5 -81.5t259 -223t88.5 -321.5t-88.5 -321t-259 -222t-417.5 -81h-300v-422h-433v2048zM607 754h300q185 0 268 85t83 203q0 120 -83 207.5t-268 87.5h-300v-583z" />
<glyph unicode="&#xdf;" horiz-adv-x="1870" d="M178 0v1507q0 177 87.5 304.5t246 196t371.5 68.5q199 0 365 -62.5t266 -186t100 -305.5q0 -159 -79.5 -272t-216.5 -152v-22q200 -13 318 -155t117 -357q-1 -179 -84.5 -305.5t-231.5 -192.5t-343 -66h-269v347h201q136 0 217 71t79 187q-1 120 -89.5 192.5t-241.5 72.5 h-158v332h106q109 0 173.5 76.5t65.5 180.5q2 113 -73 186.5t-208 73.5q-131 0 -212 -74.5t-81 -199.5v-1445h-426z" />
<glyph unicode="&#xe0;" horiz-adv-x="1634" d="M608 -29q-220 0 -365 115t-145 343q0 172 81 270t212.5 143.5t283.5 59.5q200 20 286 42t86 96v6q0 95 -59.5 147t-168.5 52q-115 0 -183 -50t-90 -127l-394 32q44 210 218.5 333t450.5 123q171 0 320 -54t240.5 -168.5t91.5 -297.5v-1036h-404v213h-12 q-56 -107 -167.5 -174.5t-281.5 -67.5zM730 265q140 0 230 81.5t90 202.5v163q-25 -17 -77.5 -30t-112 -22.5t-106.5 -16.5q-112 -16 -180.5 -63t-68.5 -137q0 -88 63.5 -133t161.5 -45zM990 1734h-301l-305 455h393z" />
<glyph unicode="&#xe1;" horiz-adv-x="1634" d="M608 -29q-220 0 -365 115t-145 343q0 172 81 270t212.5 143.5t283.5 59.5q200 20 286 42t86 96v6q0 95 -59.5 147t-168.5 52q-115 0 -183 -50t-90 -127l-394 32q44 210 218.5 333t450.5 123q171 0 320 -54t240.5 -168.5t91.5 -297.5v-1036h-404v213h-12 q-56 -107 -167.5 -174.5t-281.5 -67.5zM730 265q140 0 230 81.5t90 202.5v163q-25 -17 -77.5 -30t-112 -22.5t-106.5 -16.5q-112 -16 -180.5 -63t-68.5 -137q0 -88 63.5 -133t161.5 -45zM683 1734l213 455h393l-305 -455h-301z" />
<glyph unicode="&#xe2;" horiz-adv-x="1634" d="M608 -29q-220 0 -365 115t-145 343q0 172 81 270t212.5 143.5t283.5 59.5q200 20 286 42t86 96v6q0 95 -59.5 147t-168.5 52q-115 0 -183 -50t-90 -127l-394 32q44 210 218.5 333t450.5 123q171 0 320 -54t240.5 -168.5t91.5 -297.5v-1036h-404v213h-12 q-56 -107 -167.5 -174.5t-281.5 -67.5zM730 265q140 0 230 81.5t90 202.5v163q-25 -17 -77.5 -30t-112 -22.5t-106.5 -16.5q-112 -16 -180.5 -63t-68.5 -137q0 -88 63.5 -133t161.5 -45zM636 1718l201 244l201 -244h363v14l-406 440h-317l-405 -440v-14h363z" />
<glyph unicode="&#xe3;" horiz-adv-x="1634" d="M608 -29q-220 0 -365 115t-145 343q0 172 81 270t212.5 143.5t283.5 59.5q200 20 286 42t86 96v6q0 95 -59.5 147t-168.5 52q-115 0 -183 -50t-90 -127l-394 32q44 210 218.5 333t450.5 123q171 0 320 -54t240.5 -168.5t91.5 -297.5v-1036h-404v213h-12 q-56 -107 -167.5 -174.5t-281.5 -67.5zM730 265q140 0 230 81.5t90 202.5v163q-25 -17 -77.5 -30t-112 -22.5t-106.5 -16.5q-112 -16 -180.5 -63t-68.5 -137q0 -88 63.5 -133t161.5 -45zM551 1725l-237 3q0 191 94.5 293t230.5 103q78 0 132 -28.5t99 -59.5 q35 -25 67.5 -43.5t70.5 -18.5q58 1 88 43.5t31 111.5l233 -7q-1 -190 -95 -292t-230 -103q-84 0 -137 28.5t-95 59.5q-33 25 -65 43.5t-72 18.5q-52 0 -83.5 -41t-31.5 -111z" />
<glyph unicode="&#xe4;" horiz-adv-x="1634" d="M608 -29q-220 0 -365 115t-145 343q0 172 81 270t212.5 143.5t283.5 59.5q200 20 286 42t86 96v6q0 95 -59.5 147t-168.5 52q-115 0 -183 -50t-90 -127l-394 32q44 210 218.5 333t450.5 123q171 0 320 -54t240.5 -168.5t91.5 -297.5v-1036h-404v213h-12 q-56 -107 -167.5 -174.5t-281.5 -67.5zM730 265q140 0 230 81.5t90 202.5v163q-25 -17 -77.5 -30t-112 -22.5t-106.5 -16.5q-112 -16 -180.5 -63t-68.5 -137q0 -88 63.5 -133t161.5 -45zM532 1746q-86 0 -148 60.5t-62 143.5q0 85 62 144t148 59q87 0 147.5 -59t60.5 -144 q0 -83 -60.5 -143.5t-147.5 -60.5zM1144 1746q-86 0 -148 60.5t-62 143.5q0 85 62 144t148 59q87 0 147.5 -59t60.5 -144q0 -83 -60.5 -143.5t-147.5 -60.5z" />
<glyph unicode="&#xe5;" horiz-adv-x="1634" d="M608 -29q-220 0 -365 115t-145 343q0 172 81 270t212.5 143.5t283.5 59.5q200 20 286 42t86 96v6q0 95 -59.5 147t-168.5 52q-115 0 -183 -50t-90 -127l-394 32q44 210 218.5 333t450.5 123q171 0 320 -54t240.5 -168.5t91.5 -297.5v-1036h-404v213h-12 q-56 -107 -167.5 -174.5t-281.5 -67.5zM730 265q140 0 230 81.5t90 202.5v163q-25 -17 -77.5 -30t-112 -22.5t-106.5 -16.5q-112 -16 -180.5 -63t-68.5 -137q0 -88 63.5 -133t161.5 -45zM837 1701q-95 0 -173 44t-124 118.5t-46 165.5t46 166.5t124 121t173 45.5t172 -45.5 t123 -121t46 -166.5t-46 -165.5t-123 -118.5t-172 -44zM837 1879q66 1 111 46t45 104q0 61 -45 107t-111 46q-67 -1 -111.5 -46.5t-44.5 -106.5q0 -59 44.5 -104.5t111.5 -45.5z" />
<glyph unicode="&#xe6;" horiz-adv-x="2573" d="M1786 -30q-189 0 -337 72.5t-223 208.5h-11q-61 -129 -224 -204.5t-359 -75.5q-238 0 -386 115.5t-148 342.5q0 171 81 269t213 144t283 60q201 20 286.5 42.5t85.5 95.5v6q0 95 -59.5 147t-168.5 52q-114 0 -183 -50t-90 -127l-394 32q45 210 219 333t457 123 q126 0 247.5 -43.5t190.5 -156.5q177 200 476 200q204 0 367.5 -86t259.5 -259.5t96 -434.5v-117h-1047v-1q0 -171 94.5 -270.5t253.5 -99.5q107 0 185 45t111 133l393 -26q-45 -214 -226.5 -342t-442.5 -128zM730 265q140 0 230 81.5t90 202.5v163q-25 -17 -77.5 -30 t-112 -22.5t-106.5 -16.5q-112 -16 -180.5 -63t-68.5 -137q0 -88 63.5 -133t161.5 -45zM1418 923h646q-1 137 -88.5 226t-225.5 89q-142 0 -233 -92.5t-99 -222.5z" />
<glyph unicode="&#xe7;" horiz-adv-x="1654" d="M864 -30q-236 0 -405.5 100.5t-260 279.5t-90.5 412q0 236 91.5 414.5t260.5 279t402 100.5q201 0 352.5 -73t239 -205t96.5 -310h-402q-17 115 -89.5 185.5t-189.5 70.5q-148 0 -238 -119t-90 -337q0 -220 89.5 -340.5t238.5 -120.5q110 0 185 66.5t94 189.5h402 q-10 -176 -95.5 -310t-235.5 -208.5t-355 -74.5zM764 8h196l-16 -87q103 -16 168.5 -77t66.5 -166q1 -149 -138 -237.5t-390 -88.5l-4 190q126 0 198 30.5t74 94.5q2 62 -47 93.5t-153 44.5z" />
<glyph unicode="&#xe8;" horiz-adv-x="1683" d="M870 -30q-236 0 -407 96.5t-263 274t-92 420.5q0 237 92 416t259.5 279t393.5 100q203 0 366.5 -86t259.5 -259.5t96 -434.5v-117h-1046v-1q0 -172 94 -271t254 -99q107 0 185 45t110 133l394 -26q-45 -214 -228 -342t-468 -128zM529 923h645q-1 137 -88 226t-226 89 q-142 0 -233 -92t-98 -223zM997 1734h-301l-305 455h393z" />
<glyph unicode="&#xe9;" horiz-adv-x="1683" d="M870 -30q-236 0 -407 96.5t-263 274t-92 420.5q0 237 92 416t259.5 279t393.5 100q203 0 366.5 -86t259.5 -259.5t96 -434.5v-117h-1046v-1q0 -172 94 -271t254 -99q107 0 185 45t110 133l394 -26q-45 -214 -228 -342t-468 -128zM529 923h645q-1 137 -88 226t-226 89 q-142 0 -233 -92t-98 -223zM690 1734l213 455h393l-305 -455h-301z" />
<glyph unicode="&#xea;" horiz-adv-x="1683" d="M870 -30q-236 0 -407 96.5t-263 274t-92 420.5q0 237 92 416t259.5 279t393.5 100q203 0 366.5 -86t259.5 -259.5t96 -434.5v-117h-1046v-1q0 -172 94 -271t254 -99q107 0 185 45t110 133l394 -26q-45 -214 -228 -342t-468 -128zM529 923h645q-1 137 -88 226t-226 89 q-142 0 -233 -92t-98 -223zM642 1718l201 244l201 -244h363v14l-406 440h-317l-405 -440v-14h363z" />
<glyph unicode="&#xeb;" horiz-adv-x="1683" d="M870 -30q-236 0 -407 96.5t-263 274t-92 420.5q0 237 92 416t259.5 279t393.5 100q203 0 366.5 -86t259.5 -259.5t96 -434.5v-117h-1046v-1q0 -172 94 -271t254 -99q107 0 185 45t110 133l394 -26q-45 -214 -228 -342t-468 -128zM529 923h645q-1 137 -88 226t-226 89 q-142 0 -233 -92t-98 -223zM538 1746q-86 0 -148 60.5t-62 143.5q0 85 62 144t148 59q87 0 147.5 -59t60.5 -144q0 -83 -60.5 -143.5t-147.5 -60.5zM1150 1746q-86 0 -148 60.5t-62 143.5q0 85 62 144t148 59q87 0 147.5 -59t60.5 -144q0 -83 -60.5 -143.5t-147.5 -60.5z " />
<glyph unicode="&#xec;" d="M170 0v1536h426v-1536h-426zM537 1734h-301l-305 455h393z" />
<glyph unicode="&#xed;" d="M170 0v1536h426v-1536h-426zM231 1734l213 455h393l-305 -455h-301z" />
<glyph unicode="&#xee;" d="M170 0v1536h426v-1536h-426zM183 1718l201 244l201 -244h363v14l-406 440h-317l-405 -440v-14h363z" />
<glyph unicode="&#xef;" d="M170 0v1536h426v-1536h-426zM79 1746q-86 0 -148 60.5t-62 143.5q0 85 62 144t148 59q87 0 147.5 -59t60.5 -144q0 -83 -60.5 -143.5t-147.5 -60.5zM691 1746q-86 0 -148 60.5t-62 143.5q0 85 62 144t148 59q87 0 147.5 -59t60.5 -144q0 -83 -60.5 -143.5t-147.5 -60.5z " />
<glyph unicode="&#xf0;" horiz-adv-x="1610" d="M1278 1878l-201 -102q182 -195 301.5 -452.5t119.5 -571.5q0 -248 -87 -423.5t-243 -268t-364 -92.5q-211 0 -366 95t-240 261t-85 380q0 209 73.5 361.5t189.5 244t246 113.5q109 14 211 -12.5t163 -98.5h20q-51 88 -108.5 163.5t-134.5 146.5l-354 -180l-116 215 l256 130q-90 59 -206 123l188 266q87 -44 174 -99.5t171 -123.5l276 141zM821 300q143 0 224 102.5t81 302.5q0 202 -81 303.5t-224 101.5q-140 0 -221 -99t-81 -305q0 -200 78.5 -303t223.5 -103z" />
<glyph unicode="&#xf1;" horiz-adv-x="1751" d="M596 888v-888h-426v1536h406v-271h18q52 134 171.5 212.5t290.5 78.5q240 0 385 -154.5t145 -423.5v-978h-426v902q1 141 -72 220.5t-201 79.5q-129 0 -209.5 -82.5t-81.5 -231.5zM591 1725l-237 3q0 191 94.5 293t230.5 103q78 0 132 -28.5t99 -59.5q35 -25 67.5 -43.5 t70.5 -18.5q58 1 88 43.5t31 111.5l233 -7q-1 -190 -95 -292t-230 -103q-84 0 -137 28.5t-95 59.5q-33 25 -65 43.5t-72 18.5q-52 0 -83.5 -41t-31.5 -111z" />
<glyph unicode="&#xf2;" horiz-adv-x="1728" d="M864 -30q-233 0 -402.5 99.5t-261.5 278t-92 414.5q0 238 92 416.5t261.5 278t402.5 99.5t402.5 -99.5t261.5 -278t92 -416.5q0 -236 -92 -414.5t-261.5 -278t-402.5 -99.5zM866 300q158 0 239.5 132t81.5 333t-81.5 333.5t-239.5 132.5q-161 0 -243 -132.5t-82 -333.5 t82 -333t243 -132zM1017 1734h-301l-305 455h393z" />
<glyph unicode="&#xf3;" horiz-adv-x="1728" d="M864 -30q-233 0 -402.5 99.5t-261.5 278t-92 414.5q0 238 92 416.5t261.5 278t402.5 99.5t402.5 -99.5t261.5 -278t92 -416.5q0 -236 -92 -414.5t-261.5 -278t-402.5 -99.5zM866 300q158 0 239.5 132t81.5 333t-81.5 333.5t-239.5 132.5q-161 0 -243 -132.5t-82 -333.5 t82 -333t243 -132zM711 1734l213 455h393l-305 -455h-301z" />
<glyph unicode="&#xf4;" horiz-adv-x="1728" d="M864 -30q-233 0 -402.5 99.5t-261.5 278t-92 414.5q0 238 92 416.5t261.5 278t402.5 99.5t402.5 -99.5t261.5 -278t92 -416.5q0 -236 -92 -414.5t-261.5 -278t-402.5 -99.5zM866 300q158 0 239.5 132t81.5 333t-81.5 333.5t-239.5 132.5q-161 0 -243 -132.5t-82 -333.5 t82 -333t243 -132zM663 1718l201 244l201 -244h363v14l-406 440h-317l-405 -440v-14h363z" />
<glyph unicode="&#xf5;" horiz-adv-x="1658" d="M602 1725l-237 3q0 191 94.5 293t230.5 103q78 0 132 -28.5t99 -59.5q35 -25 67.5 -43.5t70.5 -18.5q58 1 88 43.5t31 111.5l233 -7q-1 -190 -95 -292t-230 -103q-84 0 -137 28.5t-95 59.5q-33 25 -65 43.5t-72 18.5q-52 0 -83.5 -41t-31.5 -111zM869 -30 q-233 0 -402.5 99.5t-261.5 278t-92 414.5q0 238 92 416.5t261.5 278t402.5 99.5t402.5 -99.5t261.5 -278t92 -416.5q0 -236 -92 -414.5t-261.5 -278t-402.5 -99.5zM871 300q158 0 239.5 132t81.5 333t-81.5 333.5t-239.5 132.5q-161 0 -243 -132.5t-82 -333.5t82 -333 t243 -132z" />
<glyph unicode="&#xf6;" horiz-adv-x="1728" d="M864 -30q-233 0 -402.5 99.5t-261.5 278t-92 414.5q0 238 92 416.5t261.5 278t402.5 99.5t402.5 -99.5t261.5 -278t92 -416.5q0 -236 -92 -414.5t-261.5 -278t-402.5 -99.5zM866 300q158 0 239.5 132t81.5 333t-81.5 333.5t-239.5 132.5q-161 0 -243 -132.5t-82 -333.5 t82 -333t243 -132zM559 1746q-86 0 -148 60.5t-62 143.5q0 85 62 144t148 59q87 0 147.5 -59t60.5 -144q0 -83 -60.5 -143.5t-147.5 -60.5zM1171 1746q-86 0 -148 60.5t-62 143.5q0 85 62 144t148 59q87 0 147.5 -59t60.5 -144q0 -83 -60.5 -143.5t-147.5 -60.5z" />
<glyph unicode="&#xf7;" horiz-adv-x="1894" d="M1647 989v-339h-1400v339h1400zM947 22q-101 0 -171.5 71t-70.5 172q0 98 70.5 168t171.5 70q98 0 168.5 -70t70.5 -168q0 -101 -70.5 -172t-168.5 -71zM947 1135q-100 0 -171 71.5t-71 171.5q0 99 71 168.5t171 69.5q99 0 169 -69.5t70 -168.5q0 -100 -70 -171.5 t-169 -71.5z" />
<glyph unicode="&#xf8;" horiz-adv-x="1733" d="M409 -98l-195 132l102 147q-100 105 -154 252t-54 327q0 238 92 416.5t261.5 278t402.5 99.5q197 0 354 -74l99 142l197 -132l-103 -148q101 -105 155 -253t54 -329q0 -236 -92 -414.5t-261.5 -278t-402.5 -99.5q-199 0 -356 76zM570 546l445 642q-65 41 -149 41 q-161 0 -243 -132.5t-82 -333.5q0 -121 29 -217zM866 298q158 0 239.5 132t81.5 333q0 120 -29 216l-445 -639q67 -42 153 -42z" />
<glyph unicode="&#xf9;" horiz-adv-x="1751" d="M1155 654v882h426v-1536h-409v279h-16q-52 -135 -172.5 -217t-293.5 -82q-232 0 -375.5 154.5t-144.5 423.5v978h426v-902q1 -136 73 -215t193 -79q115 0 204.5 80t88.5 234zM1031 1734h-301l-305 455h393z" />
<glyph unicode="&#xfa;" horiz-adv-x="1751" d="M1155 654v882h426v-1536h-409v279h-16q-52 -135 -172.5 -217t-293.5 -82q-232 0 -375.5 154.5t-144.5 423.5v978h426v-902q1 -136 73 -215t193 -79q115 0 204.5 80t88.5 234zM724 1734l213 455h393l-305 -455h-301z" />
<glyph unicode="&#xfb;" horiz-adv-x="1751" d="M1155 654v882h426v-1536h-409v279h-16q-52 -135 -172.5 -217t-293.5 -82q-232 0 -375.5 154.5t-144.5 423.5v978h426v-902q1 -136 73 -215t193 -79q115 0 204.5 80t88.5 234zM677 1718l201 244l201 -244h363v14l-406 440h-317l-405 -440v-14h363z" />
<glyph unicode="&#xfc;" horiz-adv-x="1751" d="M1155 654v882h426v-1536h-409v279h-16q-52 -135 -172.5 -217t-293.5 -82q-232 0 -375.5 154.5t-144.5 423.5v978h426v-902q1 -136 73 -215t193 -79q115 0 204.5 80t88.5 234zM573 1746q-86 0 -148 60.5t-62 143.5q0 85 62 144t148 59q87 0 147.5 -59t60.5 -144 q0 -83 -60.5 -143.5t-147.5 -60.5zM1185 1746q-86 0 -148 60.5t-62 143.5q0 85 62 144t148 59q87 0 147.5 -59t60.5 -144q0 -83 -60.5 -143.5t-147.5 -60.5z" />
<glyph unicode="&#xfd;" horiz-adv-x="1650" d="M418 -598q-91 0 -155.5 15.5t-100.5 31.5l96 330q113 -34 190.5 -18t122.5 121l28 74l-551 1580h448l318 -1128h16l321 1128h451l-600 -1712q-65 -184 -207.5 -303t-376.5 -119zM669 1734l213 455h393l-305 -455h-301z" />
<glyph unicode="&#xfe;" horiz-adv-x="1726" d="M170 2048h426v-689h18q39 80 131.5 138.5t244.5 58.5q167 0 309 -87.5t228 -263t86 -439.5q0 -258 -83.5 -434t-225 -266.5t-314.5 -90.5q-146 0 -240.5 55.5t-135.5 138.5h-18v-745h-426v2624zM1209 768q0 207 -84 328t-254 121q-116 0 -185.5 -59.5t-100.5 -161 t-31 -228.5q0 -125 30.5 -228t100 -164.5t186.5 -61.5q169 0 253.5 123t84.5 331z" />
<glyph unicode="&#xff;" horiz-adv-x="1650" d="M418 -598q-91 0 -155.5 15.5t-100.5 31.5l96 330q113 -34 190.5 -18t122.5 121l28 74l-551 1580h448l318 -1128h16l321 1128h451l-600 -1712q-65 -184 -207.5 -303t-376.5 -119zM518 1746q-86 0 -148 60.5t-62 143.5q0 85 62 144t148 59q87 0 147.5 -59t60.5 -144 q0 -83 -60.5 -143.5t-147.5 -60.5zM1130 1746q-86 0 -148 60.5t-62 143.5q0 85 62 144t148 59q87 0 147.5 -59t60.5 -144q0 -83 -60.5 -143.5t-147.5 -60.5z" />
<glyph unicode="&#x131;" d="M170 0v1536h426v-1536h-426z" />
<glyph unicode="&#x152;" horiz-adv-x="2866" d="M1072 0q-266 0 -477 117.5t-332 345.5t-121 559q0 333 121 562t332 346.5t477 117.5h1628v-357h-947v-488h876v-357h-876v-489h951v-357h-1632zM1320 357v1334h-248q-218 0 -357.5 -161t-138.5 -508q-1 -348 138.5 -506.5t357.5 -158.5h248z" />
<glyph unicode="&#x153;" horiz-adv-x="2750" d="M869 -30q-233 0 -402.5 99.5t-261.5 278t-92 414.5q0 238 92 416.5t261.5 278t402.5 99.5t402.5 -99.5t261.5 -278t92 -416.5q0 -236 -92 -414.5t-261.5 -278t-402.5 -99.5zM871 300q158 0 239.5 132t81.5 333t-81.5 333.5t-239.5 132.5q-161 0 -243 -132.5t-82 -333.5 t82 -333t243 -132zM1976 -30q-236 0 -407 96.5t-263 274t-92 420.5q0 237 92 416t259.5 279t393.5 100q203 0 366.5 -86t259.5 -259.5t96 -434.5v-117h-1046v-1q0 -172 94 -271t254 -99q107 0 185 45t110 133l394 -26q-45 -214 -228 -342t-468 -128zM1635 923h645 q-1 137 -88 226t-226 89q-142 0 -233 -92t-98 -223z" />
<glyph unicode="&#x178;" horiz-adv-x="2040" d="M58 2048h485l467 -882h20l467 882h485l-747 -1324v-724h-430v724zM715 2258q-86 0 -148 60.5t-62 143.5q0 85 62 144t148 59q87 0 147.5 -59t60.5 -144q0 -83 -60.5 -143.5t-147.5 -60.5zM1327 2258q-86 0 -148 60.5t-62 143.5q0 85 62 144t148 59q87 0 147.5 -59 t60.5 -144q0 -83 -60.5 -143.5t-147.5 -60.5z" />
<glyph unicode="&#x189;" horiz-adv-x="2048" d="M-107 954v251h998v-251h-998zM904 0h-726v2048h732q309 0 532.5 -122.5t343.5 -351.5t120 -548q0 -320 -120.5 -550t-345 -353t-536.5 -123zM611 371h275q289 0 438.5 156t149.5 499q0 341 -149.5 496t-437.5 155h-276v-1306z" />
<glyph unicode="&#x237;" d="M170 1536h426v-1607q0 -267 -156 -387t-433 -113q-17 0 -35.5 0.5t-43.5 1.5v333q17 -1 30 -1.5t26 -0.5q103 0 144.5 43.5t41.5 130.5v1600z" />
<glyph unicode="&#x2c6;" horiz-adv-x="1578" d="M588 1718l201 244l201 -244h363v14l-406 440h-317l-405 -440v-14h363z" />
<glyph unicode="&#x2c7;" horiz-adv-x="1578" d="M588 2174l201 -244l201 244h363v-14l-406 -440h-317l-405 440v14h363z" />
<glyph unicode="&#x2d9;" horiz-adv-x="821" d="M410 1734q-94 0 -162 63.5t-68 152.5t68 152t162 63q95 0 163 -63t68 -152t-68 -152.5t-163 -63.5z" />
<glyph unicode="&#x2da;" horiz-adv-x="1082" d="M541 1701q-95 0 -173 44t-124 118.5t-46 165.5t46 166.5t124 121t173 45.5t172 -45.5t123 -121t46 -166.5t-46 -165.5t-123 -118.5t-172 -44zM541 1879q66 1 111 46t45 104q0 61 -45 107t-111 46q-67 -1 -111.5 -46.5t-44.5 -106.5q0 -59 44.5 -104.5t111.5 -45.5z" />
<glyph unicode="&#x2dc;" horiz-adv-x="1408" d="M418 1725l-237 3q0 191 94.5 293t230.5 103q78 0 132 -28.5t99 -59.5q35 -25 67.5 -43.5t70.5 -18.5q58 1 88 43.5t31 111.5l233 -7q-1 -190 -95 -292t-230 -103q-84 0 -137 28.5t-95 59.5q-33 25 -65 43.5t-72 18.5q-52 0 -83.5 -41t-31.5 -111z" />
<glyph unicode="&#x2000;" horiz-adv-x="1388" />
<glyph unicode="&#x2001;" horiz-adv-x="2777" />
<glyph unicode="&#x2002;" horiz-adv-x="1388" />
<glyph unicode="&#x2003;" horiz-adv-x="2777" />
<glyph unicode="&#x2004;" horiz-adv-x="925" />
<glyph unicode="&#x2005;" horiz-adv-x="694" />
<glyph unicode="&#x2006;" horiz-adv-x="462" />
<glyph unicode="&#x2007;" horiz-adv-x="462" />
<glyph unicode="&#x2008;" horiz-adv-x="347" />
<glyph unicode="&#x2009;" horiz-adv-x="555" />
<glyph unicode="&#x200a;" horiz-adv-x="154" />
<glyph unicode="&#x2010;" horiz-adv-x="1320" d="M1127 1010v-338h-934v338h934z" />
<glyph unicode="&#x2011;" horiz-adv-x="1320" d="M1127 1010v-338h-934v338h934z" />
<glyph unicode="&#x2012;" horiz-adv-x="1320" d="M1127 1010v-338h-934v338h934z" />
<glyph unicode="&#x2013;" horiz-adv-x="1408" d="M1408 1010v-338h-1408v338h1408z" />
<glyph unicode="&#x2014;" horiz-adv-x="2816" d="M2816 1010v-338h-2816v338h2816z" />
<glyph unicode="&#x2018;" horiz-adv-x="682" d="M155 1408v216q0 92 36 188.5t95 181.5t128 141l188 -111q-56 -88 -91.5 -184t-35.5 -214v-218h-320z" />
<glyph unicode="&#x2019;" horiz-adv-x="682" d="M527 2048v-216q0 -91 -35.5 -187t-94 -180.5t-129.5 -143.5l-188 111q50 80 88.5 175.5t38.5 222.5v218h320z" />
<glyph unicode="&#x201a;" horiz-adv-x="682" d="M527 256v-216q0 -91 -35.5 -187t-94 -180.5t-129.5 -143.5l-188 111q50 80 88.5 175.5t38.5 222.5v218h320z" />
<glyph unicode="&#x201c;" horiz-adv-x="1187" d="M155 1408v216q0 92 36 188.5t95 181.5t128 141l188 -111q-56 -88 -91.5 -184t-35.5 -214v-218h-320zM660 1408v216q0 92 36 188.5t95 181.5t128 141l188 -111q-56 -88 -91.5 -184t-35.5 -214v-218h-320z" />
<glyph unicode="&#x201d;" horiz-adv-x="1185" d="M527 2048v-216q0 -91 -35.5 -187t-94 -180.5t-129.5 -143.5l-188 111q50 80 88.5 175.5t38.5 222.5v218h320zM1029 2048v-216q0 -91 -35.5 -187t-94 -180.5t-129.5 -143.5l-188 111q50 80 88.5 175.5t38.5 222.5v218h320z" />
<glyph unicode="&#x201e;" horiz-adv-x="1185" d="M522 256v-216q0 -91 -35.5 -187t-94 -180.5t-129.5 -143.5l-188 111q50 80 88.5 175.5t38.5 222.5v218h320zM1024 256v-216q0 -91 -35.5 -187t-94 -180.5t-129.5 -143.5l-188 111q50 80 88.5 175.5t38.5 222.5v218h320z" />
<glyph unicode="&#x2022;" horiz-adv-x="1280" d="M640 376q-121 0 -221 59.5t-159.5 159.5t-59.5 221q0 122 59.5 221.5t159.5 159t221 59.5q122 0 221.5 -59.5t159 -159t59.5 -221.5q0 -121 -59.5 -221t-159 -159.5t-221.5 -59.5z" />
<glyph unicode="&#x2026;" horiz-adv-x="2250" d="M429 -26q-99 0 -170 70t-70 170q-1 98 70 168t170 70q96 0 167.5 -70t72.5 -168q-1 -100 -72.5 -170t-167.5 -70zM1134 -26q-99 0 -170 70t-70 170q-1 98 70 168t170 70q96 0 167.5 -70t72.5 -168q-1 -100 -72.5 -170t-167.5 -70zM1840 -26q-99 0 -170 70t-70 170 q-1 98 70 168t170 70q96 0 167.5 -70t72.5 -168q-1 -100 -72.5 -170t-167.5 -70z" />
<glyph unicode="&#x202f;" horiz-adv-x="555" />
<glyph unicode="&#x2039;" horiz-adv-x="1104" d="M954 220h-386l-404 600v28l404 600h386l-380 -614z" />
<glyph unicode="&#x203a;" horiz-adv-x="1104" d="M142 220l380 614l-380 614h386l404 -600v-28l-404 -600h-386z" />
<glyph unicode="&#x2044;" horiz-adv-x="770" d="M-451 0l1408 2048h261l-1408 -2048h-261z" />
<glyph unicode="&#x205f;" horiz-adv-x="694" />
<glyph unicode="&#x20ac;" horiz-adv-x="1932" d="M1518 1343l-99 -219h-642q-3 -49 -3 -102q0 -51 3 -98h550l-109 -224h-406q50 -178 159 -260t261 -82q132 0 227.5 48.5t150.5 88.5l162 -342q-109 -90 -247 -135.5t-293 -45.5q-324 0 -554 190t-306 538h-290l81 224h179q-3 48 -3 98q0 52 3 102h-260l81 219h209 q75 349 305.5 541t554.5 192q161 0 298 -48t248 -138l-160 -342q-60 42 -156.5 92t-229.5 50q-152 0 -261 -84t-159 -263h706z" />
<glyph unicode="&#x2122;" horiz-adv-x="1808" d="M1225 1312l-166 416v-416h-185v736h220l183 -486l182 486h221v-736h-186v414l-165 -414h-104zM336 1312v583h-224v153h634v-153h-224v-583h-186z" />
<glyph unicode="&#x25fc;" horiz-adv-x="1535" d="M0 1535h1535v-1535h-1535v1535z" />
<glyph horiz-adv-x="1070" d="M109 0v200l442 343q71 56 117 102.5t46 105.5q0 64 -53 97.5t-131 33.5q-79 0 -128.5 -37t-49.5 -109h-265q0 171 126.5 269.5t323.5 98.5q200 0 319.5 -101.5t119.5 -247.5q0 -118 -75 -212.5t-235 -196.5l-157 -108v-10h478v-228h-878z" />
<glyph horiz-adv-x="1160" d="M75 174v222l507 692h352v-688h159v-226h-159v-174h-265v174h-594zM673 400v390h-11l-304 -381v-9h315z" />
<glyph horiz-adv-x="808" d="M622 2112v-1088h-276v750h-12q-19 -27 -83.5 -45t-166.5 -17v221q125 -2 196.5 60t74.5 119h267z" />
<glyph horiz-adv-x="1122" d="M560 1008q-214 0 -344 95t-134 237h284q4 -47 59 -73.5t133 -26.5q84 0 139 30.5t55 83.5q0 52 -56 85.5t-157 33.5h-131v208h131q81 0 132.5 32t51.5 83q0 50 -44.5 80t-116.5 30t-127.5 -27.5t-59.5 -74.5h-269q4 95 65 168t164 114.5t230 41.5q193 0 311 -91.5 t118 -222.5q0 -89 -62 -148.5t-163 -73.5v-10q133 -13 203 -79.5t70 -167.5q0 -95 -63 -169t-172 -116t-247 -42z" />
<glyph horiz-adv-x="1506" d="M448 2222q-86 0 -148 60.5t-62 143.5q0 85 62 144t148 59q87 0 147.5 -59t60.5 -144q0 -83 -60.5 -143.5t-147.5 -60.5zM1060 2222q-86 0 -148 60.5t-62 143.5q0 85 62 144t148 59q87 0 147.5 -59t60.5 -144q0 -83 -60.5 -143.5t-147.5 -60.5z" />
<glyph horiz-adv-x="1358" d="M393 2250l-237 3q0 191 94.5 293t230.5 103q78 0 132 -28.5t99 -59.5q35 -25 67.5 -43.5t70.5 -18.5q58 1 88 43.5t31 111.5l233 -7q-1 -190 -95 -292t-230 -103q-84 0 -137 28.5t-95 59.5q-33 25 -65 43.5t-72 18.5q-52 0 -83.5 -41t-31.5 -111z" />
<glyph horiz-adv-x="1082" d="M541 2158q-90 0 -163.5 41.5t-117.5 112t-44 155.5q0 86 44 156t117.5 112t163.5 42t163.5 -42t117.5 -112t44 -156q0 -85 -44 -155.5t-117.5 -112t-163.5 -41.5zM541 2331q59 1 100.5 40.5t41.5 95.5t-41.5 96.5t-100.5 39.5q-58 0 -100.5 -40t-42.5 -96t42 -96t101 -40 z" />
</font>
</defs>
</svg>
